<?xml version="1.0" standalone="no"?>
<!DOCTYPE svg PUBLIC "-//W3C//DTD SVG 1.1//EN" "http://www.w3.org/Graphics/SVG/1.1/DTD/svg11.dtd" >
<svg xmlns="http://www.w3.org/2000/svg">
<metadata>Generated by IcoMoon</metadata>
<defs>
<font id="ejrbnicons" horiz-adv-x="512">
<font-face units-per-em="512" ascent="480" descent="-32" />
<missing-glyph horiz-adv-x="512" />
<glyph unicode="&#x20;" horiz-adv-x="256" d="" />
<glyph unicode="&#xe155;" glyph-name="uniE155" d="M66.016 349.984h320v-32h-320v32zM130.016 285.984h192v-32h-192v32zM66.016 221.984h320v-32h-320v32zM130.016 157.984h192v-32h-192v32z" />
<glyph unicode="&#xe156;" glyph-name="uniE156" d="M98.016 349.984h320v-32h-320v32zM98.016 221.984h320v-32h-320v32zM98.016 285.984h192v-32h-192v32zM98.016 157.984h192v-32h-192v32z" />
<glyph unicode="&#xe157;" glyph-name="uniE157" d="M98.016 349.984h320v-32h-320v32zM226.016 285.984h192v-32h-192v32zM98.016 221.984h320v-32h-320v32zM226.016 157.984h192v-32h-192v32z" />
<glyph unicode="&#xe158;" glyph-name="uniE158" d="M371.627 387.345c-0.666-17.835 1.485-39.97-1.127-55.791-2.338-1.587-8.96-2.406-11.998-1.178-8.653 8.175-6.007 32.444-18.329 37.189-7.322 2.867-19.507 10.035-30.925 10.035-29.679 0-68.694 0-95.471 0 4.659 0 14.728-31.898 23.45-41.831 25.89-29.509 57.43-58.675 81.784-90.624-7.014-12.834-17.613-25.515-27.443-35.584-10.001-10.257-19.934-21.64-29.73-32.068-19.473-20.565-41.25-40.123-54.938-66.594 20.548-1.11 42.070-0.938 65.826-0.938 25.002 0 57.514-4.267 70.332 6.519 3.601 3.089 6.229 8.312 9.165 13.926 2.543 4.95 7.51 11.776 12.749 12.049 12.697 0.546 10.496-25.514 10.496-37.615 0-7.851 0-14.967 0-23.040 0-6.434-1.212-20.156-4.216-23.262-3.567-3.857-21.299-5.205-31.096-5.205-62.925 0-123.802 0-188.809 0-6.28 0-23.945 0.375-25.719 8.123-1.621 7.339 9.438 19.865 13.773 25.071 39.851 48.709 84.173 85.435 124.672 134.605-17.016 30.242-42.923 51.303-69.24 79.155-17.596 18.62-35.618 35.84-54.323 56.49-7.185 7.953-23.126 25.907-9.694 34.134 4.506 2.799 20.617 3.755 30.874 3.755 67.089 0 135.424 0 201.933 0 2.099 0 4.95-6.178 8.005-7.322z" />
<glyph unicode="&#xe159;" glyph-name="uniE159" horiz-adv-x="495" d="M238.345 73.931h-97.103v294.841c52.965 1.766 70.621 3.531 86.511 3.531 30.014 0 56.497-7.062 72.386-19.421 17.655-12.358 26.483-31.779 26.483-56.497 0-22.952-12.358-42.372-37.076-54.731 37.076-12.358 54.731-38.842 54.731-77.683 0-26.483-10.593-49.435-30.014-65.324s-44.138-24.717-75.917-24.717zM194.207 328.166v-70.62c17.655 0 19.421 0 28.249 0 33.545 0 52.965 12.358 52.965 38.841 0 22.952-17.655 33.545-49.435 33.545-8.827-1.765-14.124-1.765-31.779-1.765zM194.207 216.938v-97.103c17.655-1.765 22.952-1.765 28.249-1.765 22.952 0 42.372 3.531 52.965 12.358 10.593 7.062 15.889 21.186 15.889 38.841 0 15.889-5.296 28.248-14.124 37.076-10.593 7.062-30.014 10.593-54.731 10.593-5.297 0-10.593 0-28.249 0zM494.345 462.345v17.655h-494.345v-512h494.345v494.345zM476.69-14.345h-459.034v476.69h459.034v-476.69z" />
<glyph unicode="&#xe15a;" glyph-name="uniE15A" d="M294.080 233.504c30.208-7.040 51.392-15.552 63.616-25.6 17.536-14.208 26.304-32.672 26.304-55.36 0-23.936-9.632-44.64-28.864-60.256-23.648-18.944-57.984-29.28-103.040-29.28h-156.096v10.432c0 0 21.888 1.376 27.136 4.096 5.248 2.752 4.224 6.304 6.368 10.688 2.080 4.384-1.504 15.2-1.504 32.384v206.56c0 17.184 2.176 28.032 0.096 32.512-2.112 4.448-1.408 8-6.72 10.656s-25.376 4-25.376 4v8.672h146.944c36.48 0 62.272-3.264 77.44-9.76 15.168-6.464 27.136-16.192 35.904-29.088s13.152-26.624 13.152-41.184c0-15.328-5.568-28.992-16.672-40.96s-30.688-21.472-58.688-28.512zM224 221.536v-102.080l-7.872-11.776c0-8.448-1.696-14.816 2.624-19.136 4.288-4.256 8.704-6.4 17.184-6.4 12.512 0 23.104 2.784 33.664 8.32 10.56 5.568 18.144 13.632 23.808 24.192 5.632 10.56 8.224 22.336 8.224 35.328 0 14.88-3.552 28.224-10.432 40.032-6.912 11.808-8.768 20.064-20.8 24.736-12.096 4.672-46.4 6.944-46.4 6.784zM224 239.84c0 0 30.944 2.496 41.504 7.488s14.848 12.064 20.48 21.12 6.528 20.672 6.528 34.72c0 14.080-3.712 25.632-9.28 34.624s-6.304 15.84-16.64 20.544c-10.336 4.736-42.592 6.976-42.592 6.816v-125.312z" />
<glyph unicode="&#xe15b;" glyph-name="uniE15B" d="M194.016 413.984h256v-32h-256v32zM194.016 253.984h256v-32h-256v32zM194.016 93.984h256v-32h-256v32zM130.016 397.984c0-26.51-21.49-48-48-48s-48 21.49-48 48c0 26.51 21.49 48 48 48s48-21.49 48-48zM130.016 237.984c0-26.509-21.49-48-48-48s-48 21.49-48 48c0 26.51 21.49 48 48 48s48-21.49 48-48zM130.016 77.984c0-26.51-21.49-48-48-48s-48 21.49-48 48c0 26.51 21.49 48 48 48s48-21.49 48-48z" />
<glyph unicode="&#xe15c;" glyph-name="uniE15C" d="M221.867 394.666h68.266v-341.334h-68.267v341.334zM324.267 326.4h68.267v-273.067h-68.267v273.067zM119.466 292.267h68.267v-238.934h-68.266v238.933z" />
<glyph unicode="&#xe15d;" glyph-name="uniE15D" d="M409.6 360.534h-187.733v-17.067h187.733v-187.733h-68.267v-68.267h-238.934v153.6h-17.067v-170.667h273.067v17.067h17.067v17.067h-17.067v34.133h34.133v-17.067h17.067v17.067h17.067v221.866zM375.466 121.6h17.067v-17.067h-17.067v17.067zM85.334 360.534h85.334v-17.067h-85.334v17.067zM153.6 360.534h17.066v-85.334h-17.066v85.334zM85.334 292.267h85.334v-17.066h-85.334v17.066zM85.334 360.534h17.067v-85.334h-17.067v85.334zM170.667 377.6h17.066v-17.067h-17.066v17.067zM170.667 275.2h17.066v-17.066h-17.066v17.066zM68.266 275.2h17.067v-17.066h-17.067v17.066zM68.266 377.6h17.067v-17.067h-17.067v17.067zM119.466 377.6h17.066v-17.067h-17.067v17.067zM119.466 275.2h17.066v-17.066h-17.067v17.066zM170.667 326.4h17.066v-17.066h-17.066v17.066zM68.266 326.4h17.067v-17.066h-17.067v17.066z" />
<glyph unicode="&#xe15e;" glyph-name="uniE15E" d="M384 287.008h-96l-64-96v-128h192v224h-32zM384 95.008h-128v64h64v96h64v-160zM192 287.008h32v96h96v-64h32v96h-160l-96-96v-224h96v32h-64v160z" />
<glyph unicode="&#xe15f;" glyph-name="uniE15F" d="M281.28 86.016c6.688 21.952 5.152 43.84-2.688 61.632l0.288 0.192-24.8 44.96 35.008 19.328 151.808 14.016 44.32 24.48-184.896 7.808-2.848 5.12 93.728 164.064-43.264-23.872-95.936-125.6-34.496-19.072-21.664 39.168-0.288-0.192c-10.336 18.752-29.248 34.24-53.952 40.992-44.608 12.128-90.176-8.672-101.696-46.432-11.552-37.792 15.328-78.304 59.936-90.4 24.384-6.656 48.832-3.2 68.096 7.2l0.192-0.256 40.992 22.656 17.408-31.52-41.024-22.656 0.16-0.32c-19.104-10.752-35.040-29.568-42.432-53.76-13.504-44.288 6.432-88.576 44.608-98.944 38.048-10.304 79.936 17.152 93.44 61.408zM105.952 222.24c-18.336 5.024-33.568 16.256-41.696 31.008-4.256 7.68-8.384 19.84-4.16 33.856 3.808 12.256 13.312 22.464 26.72 28.608 14.624 6.624 31.904 7.776 48.704 3.232 18.336-4.992 33.536-16.288 41.6-30.944 4.352-7.744 8.544-19.904 4.256-33.888-8.192-26.624-41.984-40.96-75.424-31.872zM193.888 44.704c-14.112 3.904-22.176 13.888-26.4 21.632-8.128 14.656-9.568 33.536-4.032 51.744 10.144 33.152 40.256 54.112 67.2 46.752 14.048-3.744 22.080-13.824 26.4-21.536 8.064-14.688 9.536-33.6 4-51.776-5.12-16.64-15.328-30.624-28.672-39.424-12.384-8.096-26.048-10.72-38.496-7.392z" />
<glyph unicode="&#xe160;" glyph-name="uniE160" d="M341.334 70.4c-51.746 0-93.867 42.12-93.867 93.866s42.121 93.866 93.867 93.866 93.867-42.12 93.867-93.866-42.12-93.866-93.866-93.866zM341.334 241.066c-42.343 0-76.8-34.458-76.8-76.8s34.457-76.8 76.8-76.8 76.8 34.457 76.8 76.8-34.457 76.8-76.8 76.8zM68.266 360.534h34.133v-34.134h-34.133v34.134zM375.466 292.267v34.133h-102.4v34.134h-102.4v-34.134h-102.4v-256h170.667v34.134h-136.534v187.733zM341.334 360.534h34.133v-34.134h-34.134v34.134zM341.334 292.267h34.133v-17.066h-34.134v17.066zM119.466 394.666h34.133v-51.2h-34.133v51.2zM290.134 394.666h34.134v-51.2h-34.134v51.2zM341.334 155.733h17.067v-17.067h-17.067v17.067zM324.267 206.933h17.067v-51.2h-17.067v51.2z" />
<glyph unicode="&#xe161;" glyph-name="uniE161" d="M162.016 413.984h128v-32h-128v32zM98.016 381.984h256v-32h-256v32zM98.016 317.984h64v-256h-64v256zM290.016 317.984h64v-256h-64v256zM98.016 93.984h256v-32h-256v32zM194.016 317.984h64v-256h-64v256z" />
<glyph unicode="&#xe162;" glyph-name="uniE162" d="M210.159 91.716c0 0.443-6.844 1.144-12.288 2.219l12.066 6.093c-13.431 21.829-21.487 43.435-27.392 64.427 27.187 7.356 53.487 7.56 76.595 6.058-0.495-1.656-0.615-6.486-1.11-6.486h12.185c0.392 0 0.921 2.628 1.263 3.909 8.448-0.938 16.435-3.909 23.995-3.909h41.267c-16.435 12.305-37.632 13.875-62.242 16.879 3.601 14.797 5.837 32.325 7.048 44.63h94.31c-1.673-24.593-8.089-36.915-17.817-61.509h13.397c10.582 24.593 16.709 46.37 16.709 71.543 0 26.299-7.765 53.009-19.217 74.837 1.212 0.649-1.331-0.154-0.171 0.461l-4.847 10.189c-0.12-0.085 2.423-0.051 0.392-1.143-27.87 44.766-77.346 74.752-133.82 74.752-52.923 0-102.486-25.224-128.358-66.44-2.867 1.707 4.677 0.325 1.826 2.151l-7.543-9.797c2.885-1.826-3.465-0.29-0.597-2.014-14.472-23.808-22.954-51.626-22.954-81.476 0-35.891 11.606-68.933 31.864-95.454-2.201-1.433 2.338 0.904 0.136-0.598l7.254-10.837c2.492 1.69-2.492-1.622 0 0 26.453-29.781 61.15-47.002 98.048-50.125v11.639zM262.793 183.569c-24.849 1.861-52.633 0.307-82.056-7.611-3.925 17.067-5.786 37.308-6.042 49.613h95.163c-1.246-12.322-3.498-27.614-7.065-42.001zM270.712 237.858h-95.931c0.529 12.305 2.645 32.375 5.837 47.121 20.207-4.421 39.697-6.537 57.89-6.537 10.905 0 21.265 0.973 31.198 2.082 1.314-13.465 1.741-30.378 1.007-42.666zM376.423 237.858h-94.106c0.734 12.305 0.256 30.139-1.144 44.066 35.345 5.325 62.959 16.264 78.524 23.45 10.649-20.258 16.726-42.889 16.726-67.516zM353.775 314.846c-14.814-6.81-40.824-16.793-73.95-21.828-5.598 40.874-17.954 72.226-25.208 87.859 41.711-6.998 77.415-31.625 99.157-66.031zM230.486 383.027c3.499 0 6.929-0.29 10.376-0.529 5.342-10.377 21.061-44.1 27.477-90.983-25.327-2.765-54.203-2.44-85.060 4.284 11.776 45.381 32.017 77.568 38.263 86.767 2.97 0.205 5.922 0.461 8.943 0.461zM206.626 380.911c-9.216-15.121-24.798-44.322-34.662-82.363-19.303 5.137-39.304 12.903-59.631 23.928 22.119 30.481 55.638 52.019 94.293 58.437zM105.865 313.037c21.606-11.793 42.871-19.746 63.419-25.191-3.379-15.548-5.666-37.701-6.213-49.988h-78.541c0 24.627 7.885 53.112 21.334 75.178zM85.145 225.57h77.858c0.273-12.322 2.27-34.748 6.486-52.975-17.63-5.683-35.823-13.671-54.238-24.627-16.93 21.829-27.819 52.992-30.106 77.602zM122.897 138.786c16.794 9.848 33.365 17.135 49.51 22.358 6.195-21.88 15.736-44.442 29.73-67.209-31.13 6.144-58.59 22.323-79.24 44.851zM300.561 96.973v11.69h-1.246c-3.379-1.826-6.895-3.43-10.411-5v-6.69h11.656zM296.277 90.248h-24.61v24.593h86.135v-12.305h24.593v24.593h-12.305v12.322h-12.288v12.322h-110.745v-12.322h-12.305v-12.322h-12.288v-49.186h12.288v-12.305h12.305v-12.305h73.83v12.305h-12.288v12.305h-12.322zM443.904 127.13v12.322h-12.288v12.322h-61.526v-12.322h12.305v-24.61h24.593v-24.593h-49.186v12.288h-49.203v-24.593h24.593v-24.61h86.118v12.305h24.593v12.305h12.322v49.186zM320.887 77.943h12.305v-12.322h-12.305v12.322zM419.311 65.639h12.305v-12.305h-12.305v12.305z" />
<glyph unicode="&#xe163;" glyph-name="uniE163" d="M216.736 392.736l2.752 9.248h165.504l-3.232-9.248c-15.008 0-26.464-3.328-34.368-10.016-7.968-6.656-14.88-20.576-20.896-41.728l-61.984-217.024c-4.512-15.328-6.752-25.6-6.752-30.752 0-6.016 2.304-10.656 7.008-14.016 6.016-4.352 17.312-6.656 34.016-7.008l-2.496-9.248h-168.288l2.752 9.248c16.8 0 29.152 3.232 36.992 9.632 7.808 6.4 14.912 20.48 21.248 42.112l62.496 216.992c3.808 13.344 5.76 23.392 5.76 30.24 0 6.144-2.336 11.008-7.008 14.496-4.672 3.584-15.84 5.92-33.504 7.072z" />
<glyph unicode="&#xe164;" glyph-name="uniE164" d="M66.016 349.984h320v-32h-320v32zM66.016 285.984h320v-32h-320v32zM66.016 221.984h320v-32h-320v32zM66.016 157.984h320v-32h-320v32z" />
<glyph unicode="&#xe165;" glyph-name="uniE165" d="M407.808 144.192c-21.376-18.88-40.576-28.32-57.568-28.32-10.016 0-18.304 3.296-24.928 9.856s-9.952 14.784-9.952 24.672c0 13.376 5.76 25.408 17.248 36.096s36.576 24.896 75.2 42.656v17.6c0 13.248-0.704 21.6-2.144 25.024s-4.16 6.432-8.16 8.992-8.512 3.84-13.504 3.84c-8.128 0-14.816-1.824-20.064-5.44-3.264-2.24-4.864-4.864-4.864-7.872 0-2.624 1.76-5.888 5.248-9.76 4.736-5.376 7.136-10.56 7.136-15.552 0-6.112-2.272-11.328-6.848-15.648s-10.528-6.464-17.92-6.464c-7.872 0-14.464 2.368-19.776 7.136s-7.968 10.304-7.968 16.704c0 8.992 3.552 17.6 10.688 25.792s17.056 14.464 29.824 18.848 26.016 6.56 39.744 6.56c16.64 0 29.792-3.52 39.456-10.592s15.968-14.72 18.848-22.976c1.76-5.248 2.624-17.312 2.624-36.192v-68.064c0-8 0.32-13.024 0.928-15.104s1.568-3.584 2.816-4.608 2.688-1.504 4.32-1.504c3.264 0 6.56 2.304 9.952 6.944l5.632-4.512c-6.24-9.248-12.704-15.968-19.392-20.16s-14.272-6.272-22.784-6.272c-10.016 0-17.824 2.336-23.424 7.040s-9.12 11.776-10.368 21.28zM407.808 157.888v58.688c-15.136-8.864-26.368-18.368-33.76-28.512-4.864-6.752-7.328-13.568-7.328-20.448 0-5.76 2.048-10.816 6.176-15.2 3.136-3.36 7.488-5.056 13.12-5.056 6.304 0.032 13.536 3.52 21.792 10.528zM135.744 159.008c-3.488-8.256-5.376-12.928-5.632-14.048-0.736-2.4-1.12-4.704-1.12-6.944 0-3.744 1.376-6.624 4.128-8.64 4-2.752 10.944-4.128 20.832-4.128h5.056v-6.944h-123.008v6.944c7.744 0.64 13.76 2.88 18.016 6.752 5.632 5.12 12.8 17.568 21.568 37.312l91.68 208.512h3.552l90.944-202.88c8.64-19.36 15.872-32.16 21.76-38.336s13.344-9.984 22.496-11.36v-6.944h-84.576v6.944c13.248 0.992 21.568 2.496 24.928 4.512 5.76 3.36 8.64 8.64 8.64 15.744 0 5.376-1.76 12.192-5.248 20.448l-10.688 24.736h-89.824l-13.504-31.68zM232.512 204.576l-39.008 87.552-37.888-87.552h76.896z" />
<glyph unicode="&#xe166;" glyph-name="uniE166" horiz-adv-x="495" d="M494.345 462.345v17.655h-494.345v-512h494.345v494.345zM476.69-14.345h-459.034v476.69h459.034v-476.69zM333.683 285.793h-95.338l-61.793-61.793v-150.069h176.552v211.862h-19.421zM194.207 91.586v105.931h70.62v70.62h70.62v-176.551h-141.242zM194.207 126.897h-52.965v158.897h52.965v70.62h105.931v-88.276h17.655v105.931h-127.117l-67.090-70.621v-194.207h70.621z" />
<glyph unicode="&#xe167;" glyph-name="uniE167" d="M220.091 394.666l-65.775-48.486-51.917-30.344v-262.503h290.134v341.334h-172.441zM358.4 87.466h-221.867v187.733h85.333v85.334h136.534v-273.067z" />
<glyph unicode="&#xe168;" glyph-name="uniE168" d="M192 383.008h256v-32h-256v32zM192 223.008h256v-32h-256v32zM192 63.008h256v-32h-256v32zM32 95.008h32v-32h32v32h32v32h-96zM96 63.008h32v-32h-32v32zM32 31.008h64v-32h-64v32zM32 287.008h64v-32h-64v32zM96 255.008h32v-32h-32v32zM64 191.008h-32v-32h96v32h-32v32h-32zM96 447.008h-32v-32h-32v-32h32v-32h-32v-32h96v32h-32z" />
<glyph unicode="&#xe169;" glyph-name="uniE169" d="M362.257 202.496h-99.584v-183.296l156.877 0.239v126.584l-57.293 56.474zM405.538 32.921l-128.341-0.256v156.348h85.043v-43.008h43.281v-113.084zM310.442 370.705c0.068-0.597 0.205-1.143 0.205-1.775v-22.341c0-12.441-10.137-22.562-22.562-22.562h-152.218c-12.442 0-22.579 10.137-22.579 22.562v22.34c0 0.615 0.136 1.161 0.188 1.775h-45.209v-324.403h178.073v171.008h109.329v153.395h-45.226zM277.863 381.969h-31.283v17.561c0 6.742-4.762 12.203-10.632 12.203h-43.862c-5.871 0-10.615-5.462-10.615-12.203v-17.561h-35.413c-6.758 0-12.203-5.462-12.203-12.219v-19.354c0-6.741 5.445-12.202 12.202-12.202h131.823c6.759 0 12.219 5.462 12.219 12.202v19.353c-0.017 6.758-5.462 12.219-12.237 12.219zM229.342 368.043h-29.594v25.429h29.577v-25.429zM187.733 394.666h17.066v-34.133h-17.066v34.133zM221.867 394.666h17.066v-34.133h-17.066v34.133zM290.134 343.466h17.067v-34.134h-17.067v34.134zM119.466 343.466h17.066v-34.134h-17.067v34.134zM187.733 377.6h34.133v-17.067h-34.133v17.067z" />
<glyph unicode="&#xe16a;" glyph-name="uniE16A" d="M204.8 258.134h-17.066v-17.067h-17.066v-17.066h-17.066v-17.066h-34.133v-34.133h-17.067v-68.267h-17.067v290.134h290.134v-136.534h17.067v153.6h-324.267v-324.266h153.6v153.6h-17.066zM341.334 309.333v17.067h17.067v34.134h-68.267v-34.134h17.067v-17.067zM409.6 241.066h-170.667v-136.533h85.333v-17.067h-34.133v-17.067h85.334v17.067h-34.133v17.067h85.334v136.534h-17.067zM409.6 121.6h-153.6v102.4h153.6v-102.4z" />
<glyph unicode="&#xe16b;" glyph-name="uniE16B" d="M136.534 241.066v68.266h85.334v85.334h136.534v-153.6h17.067v170.666h-138.309l-65.775-48.486-51.917-30.345v-91.835zM358.4 155.733v-119.466h-221.867v119.466h-17.067v-136.534h256v136.534zM170.667 138.666h153.6v-17.067h-153.6v17.067zM170.667 87.466h153.6v-17.067h-153.6v17.067zM34.133 275.2v-204.8h102.4v102.4h221.866v-102.4h102.4v204.8h-426.666zM443.733 224h-34.133v34.134h34.134v-34.134z" />
<glyph unicode="&#xe16c;" glyph-name="uniE16C" d="M256 155.733v34.133h34.134v34.133h85.334v-68.266h17.067v85.334h-82.62l-39.407-27.392-31.573-17.152v-40.789zM375.466 104.534v-68.267h-119.466v68.267h-17.066v-85.334h153.6v85.334zM273.067 87.466h85.334v-17.067h-85.334v17.067zM426.666 155.733h-238.934v-102.4h68.266v51.2h119.466v-51.2h68.267v102.4h-17.067zM426.666 134.946v-13.346h-17.067v13.346h-2.236v19.303h2.236v-15.582h17.067v-3.721zM85.334 428.8h17.067v-256h-17.067v256zM85.334 428.8h273.067v-17.067h-273.067v17.067zM358.4 428.8h17.067v-170.667h-17.067v170.666zM85.334 309.333h290.134v-17.066h-290.134v17.066zM221.867 428.8h17.066v-204.8h-17.066v204.8zM85.334 189.866h102.4v-17.067h-102.4v17.067z" />
<glyph unicode="&#xe16d;" glyph-name="uniE16D" d="M136.175 420.267h57.959v-79.65h-57.959v79.65zM384.512 420.267v-99.55h-274.091v99.55h-42.154v-358.4h358.4v358.4h-42.154zM110.421 101.683v39.834h274.091v-39.834h-274.091z" />
<glyph unicode="&#xe16e;" glyph-name="uniE16E" d="M68.266 360.534h17.067v-221.866h-17.067v221.866zM85.334 155.733h51.2v-17.067h-51.2v17.067zM68.266 360.534h204.8v-17.067h-204.8v17.067zM221.867 394.666h17.066v-34.133h-17.066v34.133zM221.867 394.666h153.6v-17.066h-153.6v17.066zM375.466 377.6h17.067v-17.067h-17.067v17.067zM392.534 360.534h17.067v-34.134h-17.067v34.134zM409.6 326.4h17.067v-85.333h-17.067v85.334zM392.534 241.066h17.067v-34.133h-17.067v34.133zM375.466 206.933h17.067v-34.134h-17.067v34.134zM273.067 360.534h17.067v-102.4h-17.067v102.4zM238.934 258.134h17.066v-17.067h-17.066v17.067zM238.934 70.4h17.066v-17.067h-17.066v17.067zM256 241.066h17.067v-17.066h-17.067v17.066zM273.067 224h17.067v-17.067h-17.067v17.067zM290.134 206.933h17.067v-17.067h-17.067v17.067zM307.2 189.866h17.067v-17.067h-17.067v17.067zM324.267 172.8h17.067v-34.133h-17.067v34.134zM307.2 138.666h17.067v-17.067h-17.067v17.067zM290.134 121.6h17.067v-17.067h-17.067v17.067zM273.067 104.534h17.067v-17.067h-17.067v17.067zM256 87.466h17.067v-17.067h-17.067v17.067zM221.867 87.466h17.066v-17.067h-17.066v17.067zM204.8 104.534h17.066v-17.067h-17.066v17.067zM187.733 121.6h17.066v-17.067h-17.066v17.067zM170.667 138.666h17.066v-17.067h-17.066v17.067zM153.6 155.733h17.066v-17.067h-17.066v17.067zM153.6 172.8h17.066v-17.067h-17.066v17.067zM170.667 189.866h17.066v-17.067h-17.066v17.067zM187.733 206.933h17.066v-17.067h-17.066v17.067zM204.8 224h17.066v-17.067h-17.066v17.067zM221.867 241.066h17.066v-17.066h-17.066v17.066zM358.4 172.8h17.067v-17.067h-17.067v17.067z" />
<glyph unicode="&#xe16f;" glyph-name="uniE16F" d="M145.856 161.088l-1.92 16.32h-0.768c-7.232-10.144-21.12-19.264-39.552-19.264-26.24 0.032-39.616 18.464-39.616 37.216 0 31.264 27.808 48.384 77.824 48.128v2.656c0 10.72-2.944 29.984-29.376 29.984-12.064 0-24.64-3.744-33.728-9.632l-5.376 15.52c10.72 6.944 26.208 11.456 42.56 11.456 39.552 0 49.184-27.008 49.184-52.928v-48.416c0-11.232 0.544-22.176 2.144-31.040h-21.376zM142.368 227.168c-25.696 0.512-54.816-4-54.816-29.12 0-15.264 10.144-22.496 22.144-22.496 16.832 0 27.552 10.72 31.328 21.696 0.8 2.4 1.344 5.056 1.344 7.456v22.464zM201.984 161.088c0.544 8.864 1.088 21.952 1.088 33.44v156.48h23.264v-81.312h0.544c8.32 14.432 23.296 23.776 44.128 23.776 32.096 0 54.816-26.72 54.56-66.016 0-46.272-29.152-69.28-58.016-69.28-18.72 0-33.696 7.232-43.328 24.352h-0.864l-1.088-21.44h-20.288zM226.304 212.992c0-2.944 0.544-5.888 1.056-8.576 4.576-16.32 18.176-27.52 35.328-27.52 24.608 0 39.328 20.032 39.328 49.728 0 25.952-13.376 48.16-38.496 48.16-16.032 0-31.072-10.976-35.84-28.896-0.544-2.656-1.376-5.888-1.376-9.632v-23.264zM447.456 165.952c-6.144-3.232-19.808-7.488-37.184-7.488-39.072 0-64.48 26.464-64.48 66.048 0 39.84 27.296 68.704 69.536 68.704 13.952 0 26.208-3.456 32.672-6.688l-5.376-18.176c-5.6 3.232-14.432 6.144-27.296 6.144-29.696 0-45.728-21.952-45.728-48.928 0-29.984 19.264-48.416 44.928-48.416 13.376 0 22.176 3.456 28.864 6.4l4.064-17.6zM64 227.552h384v-32h-384v32z" />
<glyph unicode="&#xe170;" glyph-name="uniE170" d="M416 159.008h64v-32h-64v32zM384 127.008h32v-32h-32v32zM512 63.008v64h-32v-32h-32v-32h32zM416 63.008v-32h-32v-32h128v32h-64v32zM221.248 293.536l96.576-124.288c10.624-13.76 14.368-22.496 18.976-26.24s15.2-6.24 15.2-7.488v-8.512h-128v8.512c32 1.888 18.496 5.952 18.496 12.192 0 3.296-0.608 8.608-6.24 15.936l-58.56 77.28-59.776-74.72c-6.4-8.288-7.616-14.112-7.616-17.568-0.032-7.808 17.696-12.192 17.696-13.12v-8.512h-128v8.512c0 0.768 13.6 2.816 17.6 6.080 3.968 3.296 12.384 12.512 24.416 27.648l97.984 121.6-89.952 116.544c-11.552 15.136-19.2 24.256-23.040 27.296-3.808 3.040-9.92 4.48-18.336 5.28l-0.224 7.040h119.552v-6.56c0-2.528-9.664-7.296-9.664-14.304 0-3.744 5.536-10.016 12.288-18.752l50.784-63.936 51.936 63.936c7.488 9.536 9.024 16.256 9.024 20.16 0 6.848-18.368 11.136-18.368 12.896v6.56h128v-6.56c0-0.8-11.872-2.464-15.136-5.056-3.2-2.56-10.944-11.904-24.224-28l-91.392-113.856z" />
<glyph unicode="&#xe171;" glyph-name="uniE171" d="M416 447.008h64v-32h-64v32zM384 415.008h32v-32h-32v32zM512 351.008v64h-32v-32h-32v-32h32zM416 351.008v-32h-32v-32h128v32h-64v32zM221.248 133.536l96.576-124.288c10.624-13.76 14.368-22.496 18.976-26.24s15.2-6.24 15.2-7.488v-8.512h-128v8.512c32 1.888 18.496 5.952 18.496 12.192 0 3.296-0.608 8.608-6.24 15.936l-58.56 77.28-59.776-74.72c-6.4-8.288-7.616-14.112-7.616-17.568 0-7.808 17.728-12.192 17.728-13.12v-8.512h-128.032v8.512c0 0.768 13.6 2.816 17.6 6.080 3.968 3.296 12.384 12.512 24.448 27.648l97.984 121.6-89.984 116.544c-11.552 15.136-19.2 24.256-23.040 27.296-3.808 3.040-9.92 4.48-18.336 5.28l-0.224 7.040h119.552v-6.56c0-2.528-9.664-7.296-9.664-14.304 0-3.744 5.536-10.016 12.288-18.752l50.784-63.936 51.936 63.936c7.488 9.536 9.024 16.256 9.024 20.16 0 6.848-18.368 11.136-18.368 12.896v6.56h128v-6.56c0-0.8-11.872-2.464-15.136-5.056-3.2-2.56-10.944-11.904-24.224-28l-91.392-113.856z" />
<glyph unicode="&#xe172;" glyph-name="uniE172" d="M68.266 394.666v-341.334h358.4v341.334h-358.4zM324.267 326.4v-51.2h-68.267v51.2h68.267zM238.934 189.866v-51.2h-68.266v51.2h68.267zM170.667 206.933v51.2h68.266v-51.2h-68.267zM256 189.866h68.267v-51.2h-68.267v51.2zM256 206.933v51.2h68.267v-51.2h-68.267zM238.934 326.4v-51.2h-68.266v51.2h68.267zM85.334 326.4h68.266v-51.2h-68.266v51.2zM85.334 258.134h68.266v-51.2h-68.266v51.2zM85.334 189.866h68.266v-51.2h-68.266v51.2zM85.334 70.4v51.2h68.266v-51.2h-68.266zM170.667 70.4v51.2h68.266v-51.2h-68.267zM256 70.4v51.2h68.267v-51.2h-68.267zM409.6 70.4h-68.267v51.2h68.267v-51.2zM409.6 138.666h-68.267v51.2h68.267v-51.2zM409.6 206.933h-68.267v51.2h68.267v-51.2zM409.6 275.2h-68.267v51.2h68.267v-51.2z" />
<glyph unicode="&#xe173;" glyph-name="uniE173" d="M119.466 394.666v-341.334h273.067v341.334h-273.067zM375.466 70.4h-238.934v256h238.934v-256zM170.667 275.2h170.667v-34.133h-170.667v34.133zM170.667 206.933h170.667v-34.134h-170.667v34.134zM170.667 138.666h170.667v-34.133h-170.667v34.134z" />
<glyph unicode="&#xe174;" glyph-name="uniE174" d="M128 223.008h32v64h-32v32h-64v-128h64zM64 415.008h384v-32h-384v32zM224 319.008h224v-32h-224v32zM224 223.008h224v-32h-224v32zM64 127.008h384v-32h-384v32z" />
<glyph unicode="&#xe175;" glyph-name="uniE175" d="M384 287.008h-32v-64h32v-32h64v128h-64zM64 415.008h384v-32h-384v32zM64 319.008h224v-32h-224v32zM64 223.008h224v-32h-224v32zM64 127.008h384v-32h-384v32z" />
<glyph unicode="&#xe176;" glyph-name="uniE176" d="M64 31.008v32h352v-32h-352zM128 415.008h64v-157.312c0-23.616-5.792-38.944-4.416-45.952 2.368-11.264 4.768-20.288 13.728-27.104s19.552-10.208 35.072-10.208c15.744 0 26.816 3.232 34.816 9.664s12.768 14.336 14.4 23.712 2.4 24.96 2.4 46.688v160.512h64v-152.8c0-32.992-6.112-56.32-9.12-69.952s-10.848-25.12-18.912-34.496-20-16.832-33.504-22.4-31.712-8.352-53.472-8.352c-26.24 0-46.432 3.040-60 9.088s-24.384 13.952-32.288 23.616-10.944 19.84-13.44 30.464c-3.616 15.776-3.264 39.008-3.264 69.76v155.072z" />
<glyph unicode="&#xe177;" glyph-name="uniE177" horiz-adv-x="495" d="M494.345 462.345v17.655h-494.345v-512h494.345v494.345zM476.69-14.345h-459.034v476.69h459.034v-476.69zM289.545 301.683h-135.945v1.765l49.435 70.621h-49.435l-63.559-88.276 63.559-88.276h47.669l-49.435 72.386h130.649c51.2 0 93.572-37.076 93.572-84.745s-42.373-84.745-93.572-84.745h-3.531v-31.779h10.593c63.558 0 116.524 51.2 116.524 116.524-1.765 63.559-52.966 116.524-116.524 116.524z" />
<glyph unicode="&#xe178;" glyph-name="uniE178" d="M129.184 130.624c-21.376-18.88-40.576-28.32-57.568-28.32-10.016 0-18.304 3.296-24.928 9.856s-9.952 14.784-9.952 24.672c0 13.376 5.76 25.408 17.248 36.096s36.576 24.896 75.2 42.656v17.6c0 13.248-0.704 21.6-2.144 25.024s-4.16 6.432-8.16 8.992-8.512 3.84-13.504 3.84c-8.128 0-14.816-1.824-20.064-5.44-3.264-2.24-4.864-4.864-4.864-7.872 0-2.624 1.76-5.888 5.248-9.76 4.736-5.376 7.136-10.56 7.136-15.552 0-6.112-2.272-11.328-6.848-15.648s-10.528-6.464-17.92-6.464c-7.872 0-14.464 2.368-19.776 7.136s-8 10.304-8 16.704c0 8.992 3.552 17.6 10.688 25.792s17.056 14.464 29.824 18.848 26.016 6.56 39.744 6.56c16.64 0 29.792-3.52 39.456-10.592s15.968-14.72 18.848-22.976c1.76-5.28 2.624-17.344 2.624-36.192v-68.064c0-8 0.32-13.024 0.928-15.104s1.568-3.584 2.816-4.608 2.688-1.504 4.32-1.504c3.264 0 6.56 2.304 9.952 6.944l5.632-4.512c-6.24-9.248-12.704-15.968-19.392-20.16s-14.304-6.272-22.816-6.272c-10.016 0-17.824 2.336-23.424 7.040s-9.056 11.776-10.304 21.28zM129.184 144.32v58.688c-15.136-8.864-26.4-18.368-33.76-28.512-4.864-6.752-7.328-13.568-7.328-20.416 0-5.76 2.048-10.816 6.176-15.2 3.136-3.36 7.488-5.056 13.12-5.056 6.272 0 13.536 3.488 21.792 10.496zM371.232 177.12h-89.824l-10.656-24.736c-3.52-8.256-5.28-15.072-5.28-20.448 0-7.136 2.88-12.384 8.64-15.744 3.36-2.016 11.68-3.488 24.928-4.512v-6.944h-84.544v6.944c9.12 1.376 16.608 5.184 22.496 11.36s13.12 18.976 21.76 38.336l90.912 202.88h3.552l91.68-208.512c8.736-19.744 15.936-32.192 21.568-37.312 4.256-3.872 10.24-6.112 18.016-6.752v-6.944h-123.008v6.944h5.056c9.888 0 16.8 1.376 20.8 4.128 2.752 2.016 4.128 4.864 4.128 8.64 0 2.24-0.384 4.576-1.12 6.944-0.256 1.12-2.112 5.824-5.632 14.048l-13.472 31.68zM364.864 191.008l-37.888 87.552-38.976-87.552h76.864z" />
<glyph unicode="&#xe179;" glyph-name="uniE179" d="M426.666 411.733h-358.4v-358.4h375.466v358.4h-17.067zM375.466 394.666v-34.133h-34.134v34.133h34.134zM324.267 394.666v-34.133h-34.133v34.133h34.134zM273.067 394.666v-34.133h-34.133v34.133h34.133zM221.867 394.666v-34.133h-34.133v34.133h34.133zM170.667 394.666v-34.133h-34.133v34.133h34.133zM85.334 394.666h34.133v-34.133h-34.133v34.133zM85.334 70.4v34.134h34.133v-34.134h-34.133zM136.534 70.4v34.134h34.133v-34.134h-34.133zM187.733 70.4v34.134h34.133v-34.134h-34.133zM238.934 70.4v34.134h34.133v-34.134h-34.133zM290.134 70.4v34.134h34.134v-34.134h-34.134zM341.334 70.4v34.134h34.133v-34.134h-34.134zM426.666 70.4h-34.133v34.134h34.134v-34.134zM426.666 121.6h-341.334v221.866h341.334v-221.866zM426.666 360.534h-34.133v34.134h34.134v-34.134z" />
<glyph unicode="&#xe17a;" glyph-name="uniE17A" d="M96 32l96 172.8v-12.8h-96v32h160v-16l-128-169.6v-6.4h128v-32h-160v32zM268.8 262.4l-92.8 188.8-89.6-188.8 25.6-12.8 16 38.4h96v6.4l22.4-44.8 22.4 12.8zM144 320l32 70.4 35.2-70.4h-67.2zM384 448h32v-352h-32v352zM320 96h160v-32h-160v32zM352 64h96v-32h-96v32zM384 32h32v-32h-32v32z" />
<glyph unicode="&#xe17b;" glyph-name="uniE17B" d="M444.8 448h-412.8v-448h448v448h-35.2zM224 32h-160v160h160v-160zM224 256h-160v160h160v-160zM448 32h-160v160h160v-160zM448 256h-160v160h160v-160z" />
<glyph unicode="&#xe17c;" glyph-name="uniE17C" d="M342.304 205.888l-47.808 8.64c5.376 19.232 14.624 33.472 27.744 42.72s32.64 13.888 58.496 13.888c23.488 0 40.992-2.784 52.512-8.352s19.584-12.64 24.288-21.184 7.040-24.288 7.040-47.168l-0.576-61.472c0-17.504 0.832-32.672 2.528-40.96s4.832-28.992 9.472-28.992h-52.128c-1.376 0-3.072 10.944-5.056 17.824-0.864 3.136-1.536 6.304-1.92 7.328-8.992-8.736-18.624-14.752-28.864-19.136s-21.216-6.304-32.832-6.304c-20.512 0-36.704 5.728-48.544 16.832s-17.888 25.248-17.888 42.24c0 11.264 2.432 21.312 7.808 30.112s12.352 15.552 22.016 20.256 26.336 8.8 44.608 12.32c24.64 4.64 52.8 8.96 52.8 12.96v5.248c0 10.112-4.096 17.344-9.088 21.664s-14.144 6.464-28.032 6.464c-9.376 0-17.632-1.856-22.88-5.536s-10.432-10.144-13.696-19.392zM416 163.136c0-2.24-19.072-4.928-33.696-8.064s-23.936-6.176-28.448-9.184c-6.88-4.864-11.328-11.072-11.328-18.56 0-7.36 2.112-13.76 7.616-19.136s12-8.064 20.512-8.064c9.504 0 17.952 3.136 26.56 9.376 6.368 4.736 13.152 10.56 15.168 17.44 1.408 4.512 3.616 13.056 3.616 25.696v10.496zM110.048 351.008h58.688l107.072-288h-58.88l-22.688 64h-109.856l-24-64h-60.384l110.048 288zM177.184 191.008l-37.12 102.016-37.888-102.016h75.008z" />
<glyph unicode="&#xe17d;" glyph-name="uniE17D" d="M129.376 147.488c-10.432-8.864-20.448-15.104-30.048-18.752-9.664-3.648-20-5.472-31.040-5.472-18.208 0-32.224 4.448-42.016 13.376-9.824 8.864-14.72 20.256-14.72 34.112 0 8.128 1.856 15.552 5.568 22.24 3.68 6.752 8.544 12.128 14.496 16.192 6.016 4.064 12.736 7.136 20.256 9.216 5.504 1.472 13.888 2.848 24.992 4.224 22.688 2.688 39.456 5.952 50.176 9.696 0.096 3.872 0.16 6.304 0.16 7.328 0 11.456-2.656 19.52-7.968 24.224-7.2 6.4-17.856 9.536-32.032 9.536-13.248 0-23.008-2.304-29.312-6.976-6.272-4.64-10.944-12.8-13.984-24.608l-27.488 3.776c2.496 11.776 6.592 21.28 12.352 28.544 5.76 7.232 14.016 12.8 24.832 16.672 10.848 3.936 23.392 5.888 37.664 5.888 14.176 0 25.696-1.696 34.528-4.992s15.328-7.52 19.52-12.576c4.192-5.056 9.312-11.424 11.008-19.168 0.928-4.768 3.68-13.44 3.68-25.92v-37.504c0-26.144-1.696-42.688-0.512-49.6 1.248-6.944 1.312-13.568 4.896-19.936h-29.376c-2.944 5.824-4.832 12.672-5.632 20.48zM128 210.304c0-4.16-26.016-7.712-46.432-10.624-11.552-1.664-19.936-3.552-24.768-5.632s-8.64-5.12-11.232-9.152c-2.56-4-3.936-8.448-3.936-13.344 0-7.488 2.816-13.76 8.48-18.752 5.696-4.992 13.984-7.488 24.896-7.488 10.816 0 20.48 2.368 28.896 7.104 8.448 4.736 15.168 11.264 19.104 19.456 3.008 6.336 4.992 15.712 4.992 28.096v10.336zM192 127.008v0 224h32v-76.672c0 14.912 19.552 22.368 38.016 22.368 10.208 0 16.128-2.048 25.248-6.176 9.12-4.096 14.752-9.888 20.64-17.312 5.92-7.456 9.568-16.448 12.896-26.976s4.544-21.792 4.544-33.76c0-28.448-7.296-50.4-21.344-65.952s-38.56-23.296-58.24-23.296c-19.616 0.032-21.76 8.224-53.76 24.544v-20.768zM206.72 211.232c0-19.904 2.72-34.272 8.128-43.136 8.832-14.464 20.832-21.728 35.936-21.728 12.288 0 22.912 5.344 31.872 16 8.96 10.688 13.44 26.624 13.44 47.744 0 21.696-4.288 37.664-12.896 47.968-8.576 10.336-18.976 15.488-31.168 15.488-12.288 0-22.912-5.344-31.872-16-8.96-10.688-13.44-26.112-13.44-46.336zM481.376 187.776l27.648-3.584c-3.040-19.072-10.752-34.016-23.232-44.736-12.448-10.816-27.712-16.192-45.856-16.192-22.72 0-40.96 7.424-54.784 22.24-13.792 14.88-20.672 36.128-20.672 63.84 0 17.92 2.976 33.6 8.896 47.040s14.976 23.488 27.104 30.24c12.16 6.688 25.376 10.048 39.616 10.048 18.016 0 32.736-4.576 44.224-13.696 11.456-9.088 18.784-22.048 22.016-38.816l-27.296-4.192c-2.592 11.168-7.232 19.52-13.856 25.152-6.592 5.632-14.592 8.448-23.968 8.448-14.144 0-25.664-5.056-34.528-15.264-8.864-10.112-13.28-26.176-13.28-48.192 0-22.304 4.288-38.496 12.8-48.608s19.68-15.168 33.44-15.168c11.040 0 20.288 3.36 27.648 10.144s12.064 17.248 14.080 31.296zM-32 223.008h544v-32h-544v32z" />
<glyph unicode="&#xe17e;" glyph-name="uniE17E" d="M85.248 237.888l-47.808 8.608c5.376 19.264 14.624 33.504 27.744 42.752s32.64 13.888 58.496 13.888c23.488 0 40.992-2.784 52.512-8.352s19.584-12.64 24.288-21.184 7.040-24.288 7.040-47.168l-0.576-61.472c0-17.504 0.832-32.672 2.528-40.96s4.832-28.992 9.472-28.992h-52.128c-1.376 0-3.072 10.944-5.056 17.824-0.896 3.104-1.504 6.304-1.888 7.296-8.992-8.736-18.624-14.752-28.864-19.136s-21.184-6.272-32.832-6.272c-20.512 0-36.672 5.728-48.48 16.832s-17.696 25.28-17.696 42.272c0 11.264 2.688 21.312 8.064 30.112s12.896 15.552 22.592 20.256 25.792 8.8 44.032 12.32c24.64 4.608 53.312 8.928 53.312 12.928v5.248c0 10.112-4.64 17.344-9.632 21.664s-15.488 6.464-29.376 6.464c-9.376 0-17.216-1.856-22.464-5.536s-10.016-10.144-13.28-19.392zM160 195.136c0-2.24-19.552-4.928-34.176-8.064s-25.248-6.176-29.76-9.184c-6.88-4.896-10.848-11.072-10.848-18.56 0-7.36 2.464-13.76 7.968-19.136s12.384-8.064 20.864-8.064c9.504 0 18.496 3.136 27.136 9.376 6.368 4.736 12.672 10.56 14.656 17.44 1.376 4.512 4.16 13.056 4.16 25.696v10.496zM507.68 95.008h-60.384l-24 64h-109.856l-22.688-64h-58.88l107.072 288h58.688l110.048-288zM405.504 223.008l-37.888 102.016-37.12-102.016h75.008z" />
<glyph unicode="&#xe17f;" glyph-name="uniE17F" d="M512 224c0-141.385-114.615-256-256-256s-256 114.615-256 256c0 141.385 114.615 256 256 256s256-114.615 256-256z" />
<glyph unicode="&#xe180;" glyph-name="uniE180" d="M341.728 296.704l86.816-86.912c27.968-27.968-33.12-53.024-33.12-122.112 0-52.48 84.576-110.208 84.576-21.184v103.36c0 103.936-138.272 126.848-138.272 126.848zM315.488 278.848h-17.312c0 60.032-33.728 147.168-86.56 147.168-56.544 0-69.28-57.696-69.28-77.92h-17.312c0 36.832 23.52 95.232 86.592 95.232 66.88 0 103.872-97.248 103.872-164.48zM287.744 308.192c2.592-17.184 2.048-31.584 1.152-38.752 8.192-5.408 13.568-14.688 13.568-25.248 0-16.704-13.536-30.272-30.304-30.272-16.736 0-30.272 13.568-30.272 30.272 0 10.784 5.696 20.192 14.176 25.568 4.48 13.184 10.592 38.912 1.024 69.056l-17.472 17.536c-24.576 24.576-48.608 1.6-48.608 1.6l-154.656-154.624c-16.224-16.224 14.144-72.864 67.84-126.496 53.6-53.664 110.272-84.032 126.496-67.808 0 0 145.92 145.92 153.696 153.696 7.776 7.744 20.448 28.352 1.888 46.88-18.528 18.56-98.528 98.592-98.528 98.592z" />
<glyph unicode="&#xe181;" glyph-name="uniE181" d="M318.528 157.056h-163.328l-28.608-66.592c-7.040-16.384-10.592-28.608-10.592-36.704 0-6.432 3.040-12.064 9.152-16.96 6.144-4.864 19.36-8.032 39.68-9.472v-11.52h-132.832v11.52c17.632 3.104 29.056 7.168 34.208 12.128 10.592 9.952 22.272 30.176 35.168 60.672l148.384 347.2h10.88l146.848-350.944c11.808-28.192 22.528-46.528 32.224-54.912 9.632-8.416 23.040-13.12 40.288-14.176v-11.52h-166.432v11.52c16.8 0.832 28.128 3.616 34.080 8.384 5.888 4.768 8.864 10.592 8.864 17.408 0 9.12-4.16 23.52-12.448 43.232l-25.536 60.736zM309.824 180.096l-71.552 170.496-73.44-170.496h144.992z" />
<glyph unicode="&#xe182;" glyph-name="uniE182" d="M175.158 352h195.369l-80.842 80.842h97.981l117.599-117.599-111.454-111.454h-117.599l80.842 80.842h-183.013c-55.188 0-99.934-44.746-99.934-99.935s44.746-99.935 99.934-99.935h21.329v-69.605h-20.21c-93.022 0-168.421 75.399-168.421 168.421s75.398 168.421 168.421 168.421z" />
<glyph unicode="&#xe183;" glyph-name="uniE183" d="M175.158 450.479v2.991h-148.21v-151.202l54.097 54.097 89.695-89.695 38.103 38.117-89.695 89.694zM363.789 453.471v-2.991l56.010-55.997-89.695-89.695 38.103-38.117 89.695 89.694 54.097-54.097v151.202zM170.738 195.638l-89.695-89.695-54.097 54.097v-151.202h148.21v2.991l-56.010 56.010 89.695 89.695zM368.209 195.638l-38.103-38.103 89.695-89.695-56.010-56.010v-2.991h148.21v151.202l-54.097-54.097z" />
<glyph unicode="&#xe184;" glyph-name="uniE184" d="M336.842 352h-195.369l80.842 80.842h-97.981l-117.599-117.599 111.454-111.454h117.599l-80.842 80.842h183.013c55.188 0 99.935-44.746 99.935-99.935s-44.746-99.935-99.935-99.935h-21.329v-69.605h20.211c93.022 0 168.421 75.399 168.421 168.421s-75.399 168.421-168.421 168.421z" />
<glyph unicode="&#xe185;" glyph-name="uniE185" d="M202.106 385.684h-26.947v-53.894h-53.894v-26.947h53.894v-67.368h26.947v67.368h53.894v26.947h-53.894zM297.769 208.977c32.161 28.389 52.548 69.807 52.548 116.076 0 85.571-69.376 154.947-154.947 154.947s-154.947-69.376-154.947-154.947 69.376-154.947 154.947-154.947c28.524 0 55.148 7.841 78.107 21.275l157.683-223.38 40.421 40.421-173.81 200.556zM195.369 197.053c-70.697 0-128 57.303-128 128s57.303 128 128 128 128-57.303 128-128-57.303-128-128-128z" />
<glyph unicode="&#xe186;" glyph-name="uniE186" d="M301.137 208.977c32.161 28.389 52.548 69.807 52.548 116.076 0 85.571-69.376 154.947-154.947 154.947s-154.947-69.376-154.947-154.947 69.376-154.947 154.947-154.947c28.524 0 55.148 7.841 78.107 21.275l157.683-223.38 40.421 40.421-173.81 200.556zM198.737 197.053c-70.696 0-128 57.303-128 128s57.304 128 128 128 128-57.303 128-128-57.303-128-128-128zM124.632 328.421h134.737v-26.947h-134.737v26.947z" />
<glyph unicode="&#xe900;" glyph-name="05" d="M96.711 383.289h318.578v-20.48h-318.578v20.48zM96.711 283.164h199.111v-20.48h-199.111v20.48zM96.711 184.178h318.578v-20.48h-318.578v20.48zM96.711 84.053h199.111v-20.48h-199.111v20.48z" />
<glyph unicode="&#xe901;" glyph-name="06" d="M96.711 383.289h318.578v-20.48h-318.578v20.48zM216.178 283.164h199.111v-20.48h-199.111v20.48zM96.711 184.178h318.578v-20.48h-318.578v20.48zM216.178 84.053h199.111v-20.48h-199.111v20.48z" />
<glyph unicode="&#xe902;" glyph-name="07" d="M96.711 383.289h318.578v-20.48h-318.578v20.48zM96.711 283.164h318.578v-20.48h-318.578v20.48zM96.711 184.178h318.578v-20.48h-318.578v20.48zM96.711 84.053h318.578v-20.48h-318.578v20.48z" />
<glyph unicode="&#xe903;" glyph-name="08" d="M96.711 383.289h318.578v-20.48h-318.578v20.48zM157.013 283.164h199.111v-20.48h-199.111v20.48zM96.711 184.178h318.578v-20.48h-318.578v20.48zM157.013 84.053h199.111v-20.48h-199.111v20.48z" />
<glyph unicode="&#xe904;" glyph-name="a-44" d="M195.698 303.644h180.907v-11.378h-180.906v11.378zM195.698 150.045h180.907v-11.378h-180.906v11.378zM195.698 226.275h180.907v-11.378h-180.906v11.378z" />
<glyph unicode="&#xe905;" glyph-name="a-481" d="M328.818 286.578l-80.782 1.138v78.507h11.378v-67.129l69.404-1.138zM315.164 76.089c-39.822 0-71.68 31.858-71.68 71.68s31.858 71.68 71.68 71.68 71.68-31.858 71.68-71.68-31.858-71.68-71.68-71.68zM315.164 208.071c-32.995 0-60.302-27.307-60.302-60.302s27.306-60.302 60.302-60.302 60.302 27.307 60.302 60.302-27.307 60.302-60.302 60.302zM271.929 104.534h-146.774v267.378h129.707l78.507-77.369v-89.885l-5.689 2.276c-38.685 7.964-72.818-21.618-72.818-59.164 0-12.515 3.413-23.894 10.24-34.133l6.827-9.102zM136.534 115.911h113.778c-4.551 10.24-7.964 20.48-7.964 31.858 0 42.098 36.409 76.231 79.644 71.68v71.68l-71.68 70.542h-113.778v-245.76zM309.476 183.040h11.378v-71.68h-11.378v71.68zM278.755 153.458h71.68v-11.378h-71.68v11.378z" />
<glyph unicode="&#xe906;" glyph-name="a-491" d="M199.111 134.115l-73.956 73.956 7.964 7.964 65.991-65.991 179.769 160.426 7.964-9.102z" />
<glyph unicode="&#xe907;" glyph-name="a-49" d="M199.111 134.115l-73.956 73.956 7.964 7.964 65.991-65.991 179.769 160.426 7.964-9.102z" />
<glyph unicode="&#xe908;" glyph-name="a-50" d="M326.542 79.502l-84.195 48.925h-85.334c-26.169 0-47.786 21.618-47.786 47.786v142.222c0 26.169 21.618 47.786 47.786 47.786h196.835c26.169 0 47.786-21.618 47.786-47.786v-141.085c0-26.169-21.618-47.786-47.786-47.786h-11.378l-15.929-50.062zM157.013 353.707c-19.342 0-36.409-15.929-36.409-36.409v-141.084c0-19.342 15.929-36.409 36.409-36.409h88.746l73.956-43.236 14.791 43.236h20.48c19.342 0 36.409 15.929 36.409 36.409v142.222c0 19.342-15.929 36.409-36.409 36.409h-197.974zM202.524 249.031c0-9.425-7.641-17.066-17.066-17.066s-17.066 7.641-17.066 17.066c0 9.425 7.641 17.066 17.066 17.066s17.066-7.641 17.066-17.066zM273.067 249.031c0-9.425-7.641-17.066-17.067-17.066s-17.066 7.641-17.066 17.066c0 9.425 7.641 17.066 17.066 17.066s17.067-7.641 17.067-17.066zM344.747 249.031c0-9.425-7.641-17.066-17.067-17.066s-17.067 7.641-17.067 17.066c0 9.425 7.641 17.066 17.067 17.066s17.067-7.641 17.067-17.066z" />
<glyph unicode="&#xe909;" glyph-name="a-51" d="M182.044 94.293c-12.516 0-25.031 4.551-35.271 14.791l-5.689 5.689c-19.342 19.342-19.342 51.2 0 70.542l51.2 51.2 7.964-7.964-51.2-51.2c-14.791-14.791-14.791-38.685 0-54.613l5.689-5.689c14.791-14.791 38.684-14.791 54.614 0l51.2 51.2 7.964-7.964-51.2-51.2c-10.24-9.102-22.756-14.791-35.271-14.791zM318.578 211.485l-7.964 7.964 51.2 51.2c14.791 14.791 14.791 38.685 0 54.613l-5.689 5.689c-14.791 14.791-38.685 14.791-54.613 0l-51.2-51.2-6.827 6.827 51.2 51.2c19.342 19.342 51.2 19.342 70.542 0l5.689-5.689c19.342-19.342 19.342-51.2 0-70.542l-52.338-50.062zM202.607 179.524l96.542 96.543 8.045-8.045-96.543-96.543-8.045 8.045z" />
<glyph unicode="&#xe90a;" glyph-name="a-52" d="M323.129 128.426h-145.636v5.689l73.956 88.746-73.956 93.298v4.551h141.084l4.551-47.786h-5.689c-1.138 12.515-4.551 22.755-11.378 28.445-5.689 5.689-14.791 7.964-25.031 7.964h-65.991l60.302-76.231-68.267-81.92h75.094c12.515 0 21.618 2.276 28.445 6.827s11.378 13.654 15.929 26.169l5.689-1.138-9.102-54.613z" />
<glyph unicode="&#xe90b;" glyph-name="a-11" d="M380.018 289.991h-83.058v88.747h10.24v-79.644h72.818zM375.466 64.711h-238.934c-5.689 0-9.102 4.551-9.102 9.102v300.373c0 5.689 4.551 9.102 9.102 9.102h172.942c3.413 0 9.102-2.276 11.378-4.551v0l59.164-65.991c2.276-2.275 4.551-7.964 4.551-11.378v-226.418c0-5.689-4.551-10.24-9.102-10.24zM136.534 374.187v-299.236h238.933v225.28c0 1.138-1.138 4.551-2.276 4.551l-59.164 65.991c-1.138 1.138-3.413 2.275-4.551 2.275h-172.942z" />
<glyph unicode="&#xe90c;" glyph-name="clipboard-icon-52" d="M327.68 318.435h-143.36l-1.138 4.551c0 1.138-5.689 31.858 13.654 39.822 4.551 2.275 10.24 1.138 17.066 1.138 4.551 0 13.654 0 14.791 1.138 0 1.138 0 3.413 0 4.551 1.138 10.24 2.275 28.445 26.169 28.445s26.169-18.204 26.169-28.445c0-1.138 0-3.413 0-4.551 1.138-2.276 11.378-2.276 14.791-1.138 5.689 0 11.378 0 15.929-1.138v0c15.929-5.689 14.791-34.134 14.791-39.822l1.138-4.551zM194.56 329.813h122.88c0 9.102-2.276 21.618-6.827 22.756v0c-2.276 1.138-6.827 1.138-11.378 0-10.24 0-25.031-1.138-26.169 11.378 0 1.138 0 3.413 0 5.689-1.138 12.516-2.276 18.205-14.791 17.067-13.654 0-14.791-5.689-14.791-17.067 0-2.275 0-3.413 0-5.689-1.138-12.515-15.929-11.378-26.169-11.378-4.551 0-10.24 0-11.378-1.138-11.378-2.276-12.516-14.791-11.378-21.618zM375.466 350.293h-30.72v-9.102h30.72v-276.48h-238.934v276.48h30.72v9.102h-30.72c-5.689 0-9.102-4.551-9.102-9.102v-276.48c0-5.689 4.551-9.102 9.102-9.102h238.934c5.689 0 9.102 4.551 9.102 9.102v276.48c0 4.551-4.551 9.102-9.102 9.102z" />
<glyph unicode="&#xe90d;" glyph-name="Adpt__center" d="M18.285 443.428h475.428v-18.285h-475.428v18.285zM109.715 297.143h292.572v-18.286h-292.572v18.286zM18.285 150.857h475.428v-18.286h-475.428v18.286zM109.715 22.857h292.572v-18.286h-292.572v18.286z" />
<glyph unicode="&#xe90e;" glyph-name="Adpt__font" d="M237.714 96h54.857v201.143h73.143v36.571h-201.143v-36.572h73.143v-201.143zM18.285 443.428v-438.857h475.428v438.857zM475.428 22.857h-438.857v402.286h438.857z" />
<glyph unicode="&#xe90f;" glyph-name="Adpt__justfy" d="M18.285 443.428h475.428v-18.285h-475.428v18.285zM18.285 297.143h475.428v-18.286h-475.428v18.286zM18.285 150.857h475.428v-18.286h-475.428v18.286zM18.285 22.857h475.428v-18.286h-475.428v18.286z" />
<glyph unicode="&#xe910;" glyph-name="Adpt__left" d="M18.285 443.428h475.428v-18.285h-475.428v18.285zM18.285 297.143h292.572v-18.286h-292.572v18.286zM18.285 150.857h475.428v-18.286h-475.428v18.286zM18.285 22.857h292.572v-18.286h-292.572v18.286z" />
<glyph unicode="&#xe911;" glyph-name="Adpt__right" d="M18.285 443.428h475.428v-18.285h-475.428v18.285zM201.143 297.143h292.572v-18.286h-292.572v18.286zM18.285 150.857h475.428v-18.286h-475.428v18.286zM201.143 22.857h292.572v-18.286h-292.572v18.286z" />
<glyph unicode="&#xe912;" glyph-name="uniE912" d="M375.466 64.711h-238.934c-5.689 0-9.102 4.551-9.102 9.102v300.373c0 5.689 4.551 9.102 9.102 9.102h172.942c3.413 0 9.102-2.276 11.378-4.551v0l59.164-65.991c2.276-2.275 4.551-7.964 4.551-11.378v-226.418c0-5.689-4.551-10.24-9.102-10.24zM136.534 374.187v-299.236h238.933v225.28c0 1.138-1.138 4.551-2.276 4.551l-59.164 65.991c-1.138 1.138-3.413 2.275-4.551 2.275h-172.942z" />
<glyph unicode="&#xe913;" glyph-name="Adpt__tables" d="M18.285 443.428h475.428v-18.285h-475.428v18.285zM18.285 150.857h475.428v-18.286h-475.428v18.286zM18.285 297.143h475.428v-18.286h-475.428v18.286zM18.285 22.857h475.428v-18.286h-475.428v18.286zM18.285 425.143h18.285v-402.286h-18.285v402.286zM475.428 425.143h18.286v-402.286h-18.286v402.286zM164.571 425.143h18.285v-402.286h-18.286v402.286zM329.143 425.143h18.286v-402.286h-18.286v402.286z" />
<glyph unicode="&#xe914;" glyph-name="Adpt__Clear" d="M329.143 443.428v18.286h-128v-18.286h-109.715v-18.285h347.428v18.285zM109.715-13.714h310.857v420.572h-310.857v-420.572zM128 388.572h274.286v-384h-274.286v384zM182.857 370.286h18.285v-347.428h-18.286v347.428zM256 370.286h18.286v-347.428h-18.286v347.428zM329.143 370.286h18.286v-347.428h-18.286v347.428z" />
<glyph unicode="&#xe915;" glyph-name="Adpt__copy" d="M219.429 352h73.143v36.572h-18.286v-18.286h-54.857v54.857h18.285v18.285h-18.286v18.286h-182.857v-310.857h146.286v18.286h-128v274.286h146.286v-91.428zM91.428 388.572h73.143v-18.286h-73.143v18.286zM91.428 315.428h91.428v-18.285h-91.428v18.286zM91.428 242.286h91.428v-18.286h-91.428v18.286zM457.143 242.286v18.286h-18.286v-18.286h-54.857v54.857h18.286v18.285h-18.286v18.286h-164.571v-347.428h256v256h-18.286zM457.143 4.572h-219.429v310.857h128v-91.428h91.428v-219.429zM274.286 242.286h54.857v-18.286h-54.857v18.286zM274.286 169.143h146.286v-18.286h-146.286v18.286zM274.286 96h146.286v-18.286h-146.286v18.286zM402.286 297.143h18.286v-18.286h-18.286v18.286zM420.572 278.857h18.286v-18.285h-18.286v18.286zM237.714 425.143h18.286v-18.286h-18.286v18.286zM256 406.857h18.286v-18.285h-18.286v18.285z" />
<glyph unicode="&#xe916;" glyph-name="Adpt__cut" d="M493.714 342.857l-5.486 7.315c-27.428 32.914-67.657 23.771-69.486 23.771l-239.543-140.8-62.172 36.571c36.571 7.315 65.828 40.228 65.828 80.457 0 45.714-36.572 80.457-82.285 80.457s-82.285-36.572-82.285-82.286c0-40.228 29.257-73.143 69.486-80.457v0l74.972-43.886-74.972-43.886c-38.4-7.315-69.486-40.228-69.486-80.457 0-45.714 36.572-80.457 82.285-80.457s82.285 36.572 82.285 80.457c0 38.4-27.428 71.315-64 78.628l60.343 36.572 239.543-140.8h1.829c0 0 7.315-1.829 14.628-1.829 14.628 0 36.572 3.657 53.029 25.6l5.486 7.315-201.143 118.857 201.143 118.857zM32.914 348.343c0 36.572 29.257 65.829 65.828 65.829s65.829-29.257 65.829-65.829-29.257-65.828-65.829-65.828-65.829 29.257-65.829 65.829zM166.4 99.657c0-36.572-29.257-65.829-65.829-65.829s-65.829 29.257-65.829 65.829 29.257 65.829 65.829 65.829 65.829-29.257 65.829-65.829zM422.4 359.315c5.486 1.829 27.428 3.657 45.714-10.972l-241.371-144.457-32.915 20.114 228.572 135.314zM469.943 99.657c-18.286-16.457-40.228-12.8-45.714-10.971l-181.029 106.057 34.743 20.115 192-115.2z" />
<glyph unicode="&#xe917;" glyph-name="Adpt__paste" d="M329.143 333.714v91.428h-73.143v36.572h-146.286v-36.572h-73.143v-365.714h146.286v-73.143h292.572v347.428h-146.286zM54.857 77.714v329.143h256v-73.143h-128v-256h-128zM457.143 4.572h-256v310.857h256v-310.857z" />
<glyph unicode="&#xe918;" glyph-name="Adpt__ind_in" d="M18.285 443.428h475.428v-18.285h-475.428v18.285zM18.285 297.143h292.572v-18.286h-292.572v18.286zM18.285 150.857h292.572v-18.286h-292.572v18.286zM18.285 22.857h475.428v-18.286h-475.428v18.286zM362.057 202.057l95.086-96.914v192z" />
<glyph unicode="&#xe919;" glyph-name="Adpt__ind_out" d="M18.285 443.428h475.428v-18.285h-475.428v18.285zM201.143 297.143h292.572v-18.286h-292.572v18.286zM201.143 150.857h292.572v-18.286h-292.572v18.286zM18.285 22.857h475.428v-18.286h-475.428v18.286zM54.857 114.286l109.715 87.772-109.715 95.086z" />
<glyph unicode="&#xe92c;" glyph-name="24" d="M133.12 346.88h245.76v-14.791h-245.76v14.791zM133.12 269.511h153.6v-14.791h-153.6v14.791zM133.12 193.28h245.76v-14.791h-245.76v14.791zM133.12 117.049h153.6v-14.791h-153.6v14.791z" />
<glyph unicode="&#xe92d;" glyph-name="25" d="M210.489 335.502h6.827v-223.005h-6.827v223.005zM296.96 335.502h6.827v-223.005h-6.827v223.005zM128.569 263.822h257.138v-6.827h-257.138v6.827zM128.569 184.178h257.138v-6.827h-257.138v6.827zM377.742 109.084h-245.76c-3.413 0-6.826 3.413-6.826 6.827v216.178c0 3.413 3.414 6.827 6.826 6.827h245.76c3.413 0 6.827-3.413 6.827-6.827v-216.178c0-3.413-3.413-6.827-6.827-6.827zM131.982 332.089v-216.178h245.76v216.178h-245.76z" />
<glyph unicode="&#xe932;" glyph-name="A-28" d="M144.498 101.12l27.306 7.964c2.275 1.138 4.551 2.276 5.689 3.413 1.138 2.276 2.275 4.551 2.275 6.827v210.489c0 2.276-1.138 4.551-2.275 6.827-1.138 1.138-3.413 2.276-5.689 3.413l-27.306 7.965v12.515h105.814c19.342 0 36.409-1.138 48.924-4.551s22.755-7.964 30.72-13.654c6.827-5.689 12.515-12.516 14.791-19.342s4.551-14.791 4.551-22.756c0-9.102-1.138-15.929-4.551-23.893s-6.827-13.654-11.378-19.342c-4.551-5.689-11.378-10.24-18.204-14.791s-14.791-6.827-23.894-9.102v-1.138c10.24 0 20.48-2.275 29.582-5.689s17.067-7.965 23.894-13.653c6.827-5.689 12.515-12.515 15.929-20.48s5.689-17.067 5.689-26.169c0-10.24-1.138-19.342-4.551-27.307s-6.827-14.791-12.515-20.48-11.378-10.24-18.204-14.791-14.791-6.827-22.755-9.102-17.067-4.551-26.169-4.551c-9.102-1.138-18.204-1.138-27.306-1.138h-111.502v12.515zM237.796 237.654c13.654 0 23.894 1.138 32.995 3.413s15.929 5.689 21.618 9.102c5.689 4.551 9.102 9.102 11.378 14.791s3.413 12.515 3.413 19.342c0 10.24-1.138 18.204-3.413 25.031s-6.827 12.516-11.378 17.066-11.378 7.965-19.342 10.24c-7.964 2.276-17.067 3.413-28.445 3.413h-26.169v-102.4h19.342zM261.689 107.947c21.618 0 36.409 4.551 47.786 12.515 10.24 7.964 15.929 21.618 15.929 39.822 0 10.24-1.138 19.342-4.551 27.307-2.276 7.964-6.827 13.654-12.515 18.204s-13.654 7.964-22.755 10.24c-9.102 2.276-20.48 3.413-32.995 3.413h-32.995v-110.365h42.098z" />
<glyph unicode="&#xe933;" glyph-name="A-29" d="M283.307 88.604h-111.502l3.413 12.515 28.445 7.964c2.275 1.138 4.551 2.276 6.827 3.413s3.413 3.413 3.413 6.827l46.649 210.489c1.138 2.275 0 4.551-1.138 6.827-1.138 1.138-2.276 2.275-4.551 3.413l-29.582 7.964 2.275 12.516h111.502l-2.276-12.516-22.755-5.689c-1.138 0-3.413-1.138-4.551-2.275-2.276-1.138-3.413-1.138-4.551-2.276s-2.276-2.276-3.413-3.413c-1.138-1.138-2.276-2.276-2.276-4.551l-46.649-210.489c0-2.276 0-4.551 1.138-6.827 1.138-1.138 2.275-3.413 4.551-3.413l29.582-7.964-4.551-12.515z" />
<glyph unicode="&#xe934;" glyph-name="A-30" d="M259.413 158.009c-13.654 0-25.031 1.138-35.271 4.551s-18.204 6.827-26.169 12.515-12.516 11.378-15.929 18.204c-3.413 6.827-5.689 13.654-5.689 20.48l-2.275 118.329c0 2.276-1.138 3.413-2.275 5.689-1.138 1.138-3.413 2.275-5.689 2.275l-18.204 3.413v7.964l94.435 1.138v-7.964l-19.342-5.689c-2.275-1.138-3.413-1.138-4.551-3.413-1.138-1.138-2.275-3.413-2.275-5.689l2.275-105.813c0-3.413 0-6.827 1.138-10.24 0-3.413 1.138-6.827 3.413-11.378 1.138-3.413 3.413-6.827 5.689-10.24s5.689-5.689 9.102-9.102 7.964-4.551 12.516-5.689c4.551-1.138 11.378-2.276 18.204-2.276s12.515 1.138 18.204 2.276c5.689 1.138 10.24 3.413 13.654 6.827 3.413 2.276 6.827 5.689 9.102 9.102s4.551 6.827 5.689 10.24c1.138 3.413 2.276 6.827 3.413 10.24s1.138 6.827 1.138 10.24l-2.276 108.089c0 2.276-1.138 3.413-2.276 5.689-1.138 1.138-3.413 2.275-4.551 3.413l-19.342 5.689v7.964l70.542 1.138v-7.964l-19.342-6.827c-2.276-1.138-3.413-1.138-4.551-3.413-1.138-1.138-2.276-3.413-2.276-5.689l2.276-111.502c0-7.964-1.138-14.791-3.413-20.48s-5.689-11.378-10.24-15.929c-4.551-4.551-9.102-9.102-14.791-12.515s-11.378-5.689-17.067-7.964c-5.689-2.276-11.378-3.413-18.204-4.551-4.551-1.138-10.24-1.138-14.791-1.138zM150.186 114.774h213.902v-22.755h-213.902v22.755z" />
<glyph unicode="&#xe935;" glyph-name="A-31" d="M120.605 98.844l18.204 6.827c2.275 1.138 4.551 2.276 5.689 4.551 2.275 2.276 3.413 4.551 4.551 6.827l77.369 200.249 22.756 45.511h17.067l96.711-246.898c1.138-2.276 2.276-4.551 3.413-6.827 2.276-2.276 3.413-3.413 5.689-4.551l19.342-6.827v-12.515h-98.987v12.515l32.995 9.102-29.582 76.231h-98.987l-27.306-73.955 32.995-10.24v-12.515h-81.92v12.515zM287.858 205.796l-31.858 79.644-7.964 26.169h-2.275l-39.822-105.814h81.92z" />
<glyph unicode="&#xe936;" glyph-name="A-32" d="M385.707 181.902l22.755-43.236c11.378-21.618-3.413-46.649-27.307-46.649v0c-23.894 0-38.685 25.031-27.307 46.649l22.755 43.236c1.138 3.413 6.827 3.413 9.102 0zM218.453 82.916l-119.466 118.329 114.915 118.329 31.858 32.995 142.222-141.084-50.062-15.929-119.466-112.64zM114.915 201.245l103.538-103.538 113.778 106.951 35.271 11.378-120.605 120.604-131.982-135.395zM177.494 268.374v64.853c0 10.24 9.102 19.342 19.342 19.342h3.413c10.24 0 19.342-9.102 19.342-19.342v-62.578c-4.551-2.275-6.827-6.827-6.827-12.515 0-7.965 6.827-13.654 13.654-13.654 7.964 0 13.654 6.827 13.654 13.654 0 5.689-3.413 11.378-9.102 12.515v61.44c0 18.204-14.791 32.995-32.995 32.995s-32.995-14.791-32.995-32.995v-75.094l12.516 11.378z" />
<glyph unicode="&#xe937;" glyph-name="A-33" d="M254.862 276.338l101.262-91.022-14.791-17.067-86.471 77.369-87.609-77.369-14.791 17.067z" />
<glyph unicode="&#xe938;" glyph-name="A-34" d="M133.12 346.88h245.76v-14.791h-245.76v14.791zM133.12 269.511h153.6v-14.791h-153.6v14.791zM133.12 193.28h245.76v-14.791h-245.76v14.791zM133.12 117.049h153.6v-14.791h-153.6v14.791z" />
<glyph unicode="&#xe939;" glyph-name="A-35" d="M133.12 346.88h245.76v-14.791h-245.76v14.791zM179.769 269.511h153.6v-14.791h-153.6v14.791zM133.12 193.28h245.76v-14.791h-245.76v14.791zM179.769 117.049h153.6v-14.791h-153.6v14.791z" />
<glyph unicode="&#xe93a;" glyph-name="A-36" d="M133.12 346.88h245.76v-14.791h-245.76v14.791zM225.28 269.511h153.6v-14.791h-153.6v14.791zM133.12 193.28h245.76v-14.791h-245.76v14.791zM225.28 117.049h153.6v-14.791h-153.6v14.791z" />
<glyph unicode="&#xe93b;" glyph-name="A-37" d="M344.747 289.991h-177.494v83.058h177.494v-83.058zM176.356 299.094h158.151v64.853h-158.151v-64.853zM383.431 139.805h-48.925v65.991h-158.151v-65.991h-47.786c-14.791 0-26.169 11.378-26.169 26.169v106.951c0 14.791 11.378 26.169 26.169 26.169h253.725c14.791 0 26.169-11.378 26.169-26.169v-106.951c1.138-13.654-11.378-26.169-25.031-26.169zM344.747 150.045h38.685c9.102 0 17.067 7.964 17.067 17.067v106.951c0 9.102-7.964 17.067-17.067 17.067h-254.862c-9.102 0-17.067-7.964-17.067-17.067v-106.951c0-9.102 7.965-17.067 17.067-17.067h38.684v65.991h177.494v-65.991zM344.747 74.951h-177.494v141.084h177.494v-141.084zM176.356 84.053h158.151v121.742h-158.151v-121.742zM375.466 256.995c0-5.655-4.584-10.24-10.24-10.24s-10.24 4.584-10.24 10.24c0 5.655 4.584 10.24 10.24 10.24s10.24-4.584 10.24-10.24z" />
<glyph unicode="&#xe93c;" glyph-name="A-38" d="M409.6 85.191h-307.2v277.618h307.2v-277.618zM113.778 96.569h284.445v254.862h-284.445v-254.862zM398.222 161.422l-79.644 58.026-55.751-53.476-80.782 89.885-68.266-62.578-7.965 7.964 76.231 70.542 80.782-89.885 54.613 52.338 87.609-63.715zM336.782 292.267c0-12.567-10.188-22.756-22.755-22.756s-22.755 10.188-22.755 22.756c0 12.567 10.188 22.756 22.755 22.756s22.755-10.188 22.755-22.756z" />
<glyph unicode="&#xe93d;" glyph-name="A-39" d="M409.6 85.191h-307.2v277.618h307.2v-277.618zM113.778 96.569h284.445v254.862h-284.445v-254.862zM372.053 309.333h-20.48v22.756h20.48v-22.756zM329.955 309.333h-20.48v22.756h20.48v-22.756zM287.858 309.333h-20.48v22.756h20.48v-22.756zM245.76 309.333h-20.48v22.756h20.48v-22.756zM203.662 309.333h-21.618v22.756h20.48v-22.756zM161.565 309.333h-20.48v22.756h20.48v-22.756zM372.053 115.911h-20.48v22.755h20.48v-22.755zM329.955 115.911h-20.48v22.755h20.48v-22.755zM287.858 115.911h-20.48v22.755h20.48v-22.755zM245.76 115.911h-20.48v22.755h20.48v-22.755zM203.662 115.911h-21.618v22.755h20.48v-22.755zM161.565 115.911h-20.48v22.755h20.48v-22.755zM227.555 173.938v100.125l56.889-50.062z" />
<glyph unicode="&#xe93e;" glyph-name="A-40" d="M304.925 140.942l-37.546 34.134 7.964 7.964 29.582-27.306 29.582 27.307 6.827-7.964zM299.236 328.675h11.378v-174.080h-11.378v174.080z" />
<glyph unicode="&#xe93f;" glyph-name="A-41" d="M354.986 172.8l-87.609 87.609v36.409h-87.609l4.551 7.964c19.342 37.546 56.889 60.302 98.987 60.302 61.44 0 110.365-50.062 110.365-110.364 0-29.582-11.378-58.026-32.995-78.507l-5.689-3.413zM277.618 264.96l76.231-76.231c17.067 18.204 26.169 42.098 26.169 67.129 0 54.613-44.373 98.986-98.987 98.986-34.133 0-65.991-17.066-84.195-46.649h80.782v-43.236zM220.729 150.045h-100.124v158.151h158.151v-47.786l-84.195-84.195 26.169-26.169zM131.982 161.422h61.44l-14.791 14.791 88.746 88.747v31.858h-135.395v-135.395zM271.929 81.778l-94.435 94.435 94.435 94.435 94.435-94.435-94.435-94.435zM194.56 176.214l78.507-78.507 78.507 78.507-78.507 78.507-78.507-78.507z" />
<glyph unicode="&#xe940;" glyph-name="A-42" d="M267.378 87.466c-69.404 0-125.156 55.751-125.156 125.156 0 6.827 1.138 13.654 2.275 21.618l1.138 4.551h91.022v94.435l4.551 1.138c9.102 2.275 18.204 3.413 27.307 3.413 69.404 0 125.156-55.751 125.156-125.156s-58.026-125.156-126.293-125.156zM154.738 227.413c-1.138-5.689-1.138-10.24-1.138-14.791 0-62.578 51.2-113.778 113.778-113.778s113.778 51.2 113.778 113.778c0 62.578-51.2 113.778-113.778 113.778-6.827 0-13.654-1.138-20.48-2.276v-96.711h-92.16zM246.898 227.413h-127.431v5.689c0 70.542 54.614 127.431 121.742 127.431h5.689v-133.12zM130.845 238.791h104.675v110.365c-55.751-2.276-101.262-51.2-104.675-110.365z" />
<glyph unicode="&#xe941;" glyph-name="A-43" d="M166.115 303.644c0-8.798-7.131-15.929-15.929-15.929s-15.929 7.131-15.929 15.929c0 8.798 7.131 15.929 15.929 15.929s15.929-7.131 15.929-15.929zM166.115 224c0-8.798-7.131-15.929-15.929-15.929s-15.929 7.132-15.929 15.929c0 8.797 7.131 15.929 15.929 15.929s15.929-7.131 15.929-15.929zM166.115 144.356c0-8.798-7.131-15.929-15.929-15.929s-15.929 7.132-15.929 15.929c0 8.798 7.131 15.929 15.929 15.929s15.929-7.132 15.929-15.929zM195.698 303.644h180.907v-11.378h-180.906v11.378zM195.698 150.045h180.907v-11.378h-180.906v11.378zM195.698 226.275h180.907v-11.378h-180.906v11.378z" />
<glyph unicode="&#xe942;" glyph-name="A-44" d="M166.115 303.644c0-8.798-7.131-15.929-15.929-15.929s-15.929 7.131-15.929 15.929c0 8.798 7.131 15.929 15.929 15.929s15.929-7.131 15.929-15.929zM166.115 224c0-8.798-7.131-15.929-15.929-15.929s-15.929 7.132-15.929 15.929c0 8.797 7.131 15.929 15.929 15.929s15.929-7.131 15.929-15.929zM166.115 144.356c0-8.798-7.131-15.929-15.929-15.929s-15.929 7.132-15.929 15.929c0 8.798 7.131 15.929 15.929 15.929s15.929-7.132 15.929-15.929zM195.698 303.644h180.907v-11.378h-180.906v11.378zM195.698 150.045h180.907v-11.378h-180.906v11.378zM195.698 226.275h180.907v-11.378h-180.906v11.378z" />
<glyph unicode="&#xe943;" glyph-name="A-45" d="M142.222 320.711h227.556v-22.755h-227.555v22.755zM142.222 150.045h227.556v-22.755h-227.555v22.755zM142.222 191.005v65.991l44.374-32.995zM210.489 202.382h159.289v-11.378h-159.289v11.378zM210.489 256.995h159.289v-11.378h-159.289v11.378z" />
<glyph unicode="&#xe944;" glyph-name="A-46" d="M142.222 202.382h159.289v-11.378h-159.289v11.378zM142.222 320.711h227.556v-22.755h-227.555v22.755zM142.222 150.045h227.556v-22.755h-227.555v22.755zM142.222 256.995h159.289v-11.378h-159.289v11.378zM369.778 191.005v65.991l-44.373-32.995z" />
<glyph unicode="&#xe945;" glyph-name="A-47" d="M142.222 110.222v227.555h11.378v-227.555h-11.378zM244.622 110.222v227.555h22.755v-227.555h-22.756zM142.222 235.378h227.556v-22.755h-227.555v22.756zM358.4 110.222v227.555h11.378v-227.555h-11.378zM142.222 337.778h227.556v-11.378h-227.555v11.378zM142.222 121.6h227.556v-11.378h-227.555v11.378z" />
<glyph unicode="&#xe948;" glyph-name="Icon-01" d="M208 48h-16c-70.4 0-128 57.6-128 128s57.6 128 128 128h240v-16h-240c-62.4 0-112-49.6-112-112s49.6-112 112-112h16v-16zM315.2 176l-11.2 11.2 120 108.8-120 108.8 11.2 11.2 132.8-120z" />
<glyph unicode="&#xe949;" glyph-name="Icon-02" d="M320 32h-16v16h16c62.4 0 112 49.6 112 112s-49.6 112-112 112h-240v16h240c70.4 0 128-57.6 128-128s-57.6-128-128-128zM196.8 160l-132.8 120 132.8 120 11.2-11.2-120-108.8 120-108.8z" />
</font>
</defs>
</svg>
