<?xml version="1.0" standalone="no"?>
<!DOCTYPE svg PUBLIC "-//W3C//DTD SVG 1.1//EN" "http://www.w3.org/Graphics/SVG/1.1/DTD/svg11.dtd" >
<svg xmlns="http://www.w3.org/2000/svg">
<metadata>Generated by IcoMoon</metadata>
<defs>
<font id="ejicons" horiz-adv-x="512">
<font-face units-per-em="512" ascent="480" descent="-32" />
<missing-glyph horiz-adv-x="512" />
<glyph unicode="&#x20;" horiz-adv-x="256" d="" />
<glyph unicode="&#xe100;" glyph-name="media-smallscreen" horiz-adv-x="521" d="M0 323.797h158.373v156.203zM362.305 480v-156.203h158.373zM520.678 124.204h-158.373v-156.204zM158.373-32v156.203h-158.373z" />
<glyph unicode="&#xe101;" glyph-name="media-backward" d="M353.28-9.962l-353.28 233.962 353.28 233.739v-467.701zM466.588 451.952h44.522v-461.69h-44.522v461.69z" />
<glyph unicode="&#xe102;" glyph-name="media-download" d="M353.882 251.106l-97.882-109.93-97.882 109.93zM240.941 427.294h30.117v-271.059h-30.118v271.059zM512 26.579h-512v176.489h30.117v-146.372h451.764v146.372h30.118v-176.49z" />
<glyph unicode="&#xe103;" glyph-name="media-forward" d="M157.829 457.739l353.28-233.739-353.28-233.962v467.701zM0 451.952h44.522v-461.69h-44.522v461.69z" />
<glyph unicode="&#xe104;" glyph-name="media-fullscreen" d="M155.343 480h-155.343v-155.343zM512 324.657v155.343h-155.343zM356.657-32h155.343v155.343zM0 123.343v-155.343h155.343z" />
<glyph unicode="&#xe105;" glyph-name="media-mute" d="M472.361 233.91c0-41.29-16.516-80.929-44.594-112.309l23.123-23.123c34.684 36.336 54.503 84.233 54.503 135.433 0 61.109-28.077 117.264-75.974 155.252-6.606 4.955-18.168 4.955-23.123-3.303-4.955-6.607-4.955-18.168 3.303-23.123 39.639-29.729 62.762-77.626 62.762-128.826zM330.322 298.322c26.426-13.213 42.942-39.639 42.942-67.716 0-14.865-4.955-28.077-11.562-41.291l23.123-23.123c13.213 18.168 21.471 41.291 21.471 64.413 0 41.291-23.123 79.278-61.109 97.445-8.258 3.303-18.168 0-21.471-8.258-4.955-8.258-1.651-18.168 6.606-21.471zM249.393 299.974v151.949l-84.232-67.716zM66.064 321.445h-66.064v-184.981h87.535l161.858-130.478v130.477zM447.587-3.923c-6.606 0-13.213 1.651-18.168 6.606l-409.6 409.6c-9.909 9.909-9.909 26.426 0 36.336s24.774 9.909 34.684 0l409.6-409.6c9.909-9.909 9.909-24.774 0-34.684-4.955-4.955-11.562-8.258-16.516-8.258z" />
<glyph unicode="&#xe106;" glyph-name="media-next" d="M256 480c-141.385 0-256-114.615-256-256s114.615-256 256-256c141.385 0 256 114.615 256 256v0c0 141.385-114.615 256-256 256v0zM190.521 137.757v173.454l130.845-86.755zM354.759 139.861h-17.067v178.631h17.067z" />
<glyph unicode="&#xe107;" glyph-name="media-next-item" d="M111.832-41.701l-17.516 20.75 284.294 240.101-284.295 240.37 17.516 20.48 308.548-260.851-308.548-260.851z" />
<glyph unicode="&#xe108;" glyph-name="media-pause" d="M51.2 480h102.4v-512.819h-102.4v512.819zM365.568 480h102.4v-512.819h-102.4v512.819z" />
<glyph unicode="&#xe109;" glyph-name="uniE109" d="M200.473 293.537h25.755v-139.126h-25.755v139.126z" />
<glyph unicode="&#xe10a;" glyph-name="uniE10A" d="M299.783 293.537h25.755v-139.126h-25.755v139.126z" />
<glyph unicode="&#xe10b;" glyph-name="uniE10B" d="M256-32c-141.385 0-256 114.615-256 256s114.615 256 256 256c141.385 0 256-114.615 256-256v0c-0.175-141.314-114.685-255.824-255.983-256h-0.017zM256 459.397c-130.006 0-235.397-105.391-235.397-235.397s105.391-235.397 235.397-235.397c130.006 0 235.397 105.391 235.397 235.397v0c-0.147 129.947-105.45 235.25-235.382 235.397h-0.014z" />
<glyph unicode="&#xe110;" glyph-name="media-play" d="M64 480l389.851-258.012-389.851-258.195v516.206z" />
<glyph unicode="&#xe111;" glyph-name="uniE111" d="M188.54 338.157l175.804-116.372-175.804-116.464v232.837z" />
<glyph unicode="&#xe112;" glyph-name="uniE112" d="M256-32c-141.385 0-256 114.615-256 256s114.615 256 256 256c141.385 0 256-114.615 256-256v0c-0.158-141.322-114.678-255.842-255.985-256h-0.015zM256 470.772c-136.288 0-246.772-110.483-246.772-246.772s110.484-246.772 246.772-246.772c136.288 0 246.772 110.483 246.772 246.772v0c-0.158 136.225-110.547 246.614-246.757 246.772h-0.015z" />
<glyph unicode="&#xe113;" glyph-name="media-playlist" d="M68.377 379.747c0-18.882-15.306-34.189-34.188-34.189s-34.188 15.307-34.188 34.189c0 18.882 15.306 34.189 34.188 34.189s34.188-15.307 34.188-34.189zM76.965 77.337c0-18.882-15.306-34.188-34.188-34.188s-34.188 15.307-34.188 34.188c0 18.882 15.306 34.188 34.188 34.188s34.188-15.307 34.188-34.188zM68.377 228.625c0-18.882-15.306-34.188-34.188-34.188s-34.188 15.307-34.188 34.189c0 18.881 15.306 34.189 34.188 34.189s34.188-15.306 34.188-34.189zM141.048 74.694h368.971v-33.032h-368.971v33.033zM141.048 233.579h368.971v-33.032h-368.971v33.032zM141.048 392.464h368.971v-33.032h-368.971v33.032z" />
<glyph unicode="&#xe115;" glyph-name="uniE115" d="M-15602.103 24690.286h25453.714v-44397.715h-25453.714v44397.715z" />
<glyph unicode="&#xe116;" glyph-name="uniE116" d="M128 480l241.371-256-241.371-256z" />
<glyph unicode="&#xe117;" glyph-name="uniE117" d="M-16370.103 24690.286h25453.714v-44397.715h-25453.714v44397.715z" />
<glyph unicode="&#xe118;" glyph-name="uniE118" d="M369.372-32l-241.371 256 241.371 256z" />
<glyph unicode="&#xe119;" glyph-name="media-previous" d="M256 480c-141.385 0-256-114.615-256-256s114.615-256 256-256c141.385 0 256 114.615 256 256v0c0 141.385-114.615 256-256 256v0zM185.685 129.507h-17.066v178.631h17.066zM332.857 136.789l-130.845 86.755 130.845 86.755z" />
<glyph unicode="&#xe120;" glyph-name="media-previous-item" d="M402.863-41.701l-308.548 260.851 308.548 260.851 17.516-20.48-284.295-240.37 284.295-240.101-17.516-20.75z" />
<glyph unicode="&#xe121;" glyph-name="media-repeat" d="M408.444 430.452l103.556-81.424-103.556-81.425zM104.382 20.191l-103.556 81.425 103.556 81.424v-162.849zM462.452 228.459v-14.7c-0.094-49.858-40.486-90.25-90.334-90.343h-343.049v-43.603h342.38c74.029 0.094 134.017 60.081 134.111 134.102v49.558zM43.602 224.495v14.7c0.094 49.916 40.58 90.343 90.508 90.343 0 0 0 0 0 0h342.214v43.602h-342.214c-74.029-0.094-134.017-60.081-134.111-134.102v-49.558z" />
<glyph unicode="&#xe122;" glyph-name="media-select" d="M139.2 30.080l-139.2 139.2 22.72 22.72 116.48-116.8 340.8 340.8 22.72-22.72-363.52-363.2z" />
<glyph unicode="&#xe123;" glyph-name="media-settings" d="M509.326 252.524l-50.63 8.557c-6.375 1.054-11.424 5.744-12.99 11.833l-0.024 0.111c-5.026 19.144-12.229 35.931-21.52 51.316l0.485-0.865c-1.672 2.511-2.668 5.596-2.668 8.913s0.996 6.404 2.705 8.974l-0.038-0.060 29.772 41.716c0.461 0.552 0.74 1.268 0.74 2.050s-0.279 1.498-0.745 2.055l0.004-0.005-35.654 35.654c-0.575 0.553-1.358 0.893-2.221 0.893-0.034 0-0.068 0-0.101-0.002h0.005c-0.267 0.072-0.575 0.113-0.892 0.113s-0.624-0.041-0.916-0.119l0.025 0.005-41.36-30.128c-2.51-1.672-5.596-2.668-8.913-2.668s-6.404 0.996-8.974 2.706l0.060-0.038c-15.098 8.752-32.578 15.803-51.077 20.231l-1.336 0.27c-5.744 1.779-10.060 6.511-11.214 12.377l-0.017 0.103-8.379 50.808c-0.185 1.514-1.462 2.674-3.010 2.674-0.007 0-0.015 0-0.022 0h-50.807c-0.060 0.004-0.129 0.006-0.198 0.006-1.55 0-2.829-1.164-3.009-2.666l-0.001-0.014-8.557-50.808c-1.184-6.313-5.815-11.302-11.827-12.986l-0.117-0.028c-19.151-5.118-35.934-12.439-51.282-21.868l0.831 0.474c-2.517-1.651-5.601-2.633-8.913-2.633s-6.397 0.983-8.976 2.672l0.063-0.038-41.537 30.485c-0.266 0.085-0.573 0.134-0.891 0.134s-0.625-0.049-0.913-0.14l0.022 0.006c-0.049 0.003-0.108 0.005-0.166 0.005-0.841 0-1.602-0.343-2.151-0.896v0l-35.654-35.654c-0.461-0.551-0.74-1.268-0.74-2.050s0.279-1.498 0.745-2.055l-0.004 0.005 29.415-41.894c1.694-2.504 2.704-5.591 2.704-8.913s-1.010-6.41-2.74-8.971l0.036 0.057c-8.389-14.531-15.189-31.349-19.517-49.134l-0.271-1.317c-1.597-6.297-6.721-11.063-13.098-12.11l-0.094-0.012-50.273-8.379c-1.429-0.263-2.496-1.499-2.496-2.983 0-0.017 0-0.034 0.001-0.050v0.002-50.629c0.080-1.482 1.212-2.676 2.659-2.851l0.014-0.002 50.808-9.092c6.313-1.184 11.302-5.815 12.986-11.827l0.028-0.116c5.13-19.086 12.449-35.807 21.865-51.098l-0.472 0.825c1.63-2.522 2.6-5.605 2.6-8.913s-0.969-6.392-2.639-8.979l0.040 0.065-30.484-41.538c-0.461-0.551-0.74-1.268-0.74-2.050s0.279-1.498 0.745-2.055l-0.004 0.005 35.654-35.654c0.576-0.553 1.359-0.893 2.221-0.893 0.034 0 0.068 0 0.102 0.002h-0.005c0.267-0.072 0.575-0.113 0.891-0.113s0.624 0.041 0.916 0.119l-0.025-0.005 42.251 29.95c2.582 1.894 5.822 3.031 9.327 3.031 0.042 0 0.085 0 0.128 0h-0.006c0.002 0 0.005 0 0.008 0 3.010 0 5.834-0.793 8.275-2.183l-0.083 0.043c14.364-8.296 30.98-15.138 48.526-19.663l1.391-0.305c6.175-1.632 10.845-6.66 11.93-12.917l0.014-0.096 8.379-50.63c0.265-1.527 1.581-2.675 3.164-2.675 0.016 0 0.031 0 0.047 0h50.627c0.060-0.004 0.128-0.006 0.199-0.006 1.55 0 2.829 1.164 3.009 2.666l0.002 0.014 8.557 50.63c1.054 6.375 5.745 11.424 11.833 12.99l0.111 0.024c19.144 5.026 35.931 12.229 51.315 21.521l-0.865-0.485c2.51 1.672 5.596 2.668 8.913 2.668s6.404-0.996 8.974-2.705l-0.060 0.038 41.716-29.772c0.267-0.085 0.574-0.134 0.892-0.134s0.625 0.049 0.913 0.14l-0.022-0.006c0.050-0.003 0.108-0.005 0.166-0.005 0.841 0 1.602 0.342 2.151 0.896v0l35.654 35.654c0.461 0.551 0.74 1.268 0.74 2.050s-0.279 1.498-0.745 2.055l0.004-0.005-29.772 41.894c-1.672 2.51-2.668 5.596-2.668 8.913s0.996 6.404 2.705 8.974l-0.038-0.060c8.639 14.158 15.769 30.515 20.54 47.849l0.318 1.354c1.632 6.175 6.66 10.846 12.917 11.93l0.096 0.014 50.452 7.666c1.517 0.182 2.68 1.46 2.68 3.010 0 0.070-0.002 0.139-0.007 0.208v-0.010 51.521c-0.047 1.479-1.087 2.702-2.474 3.026l-0.022 0.005zM253.326 99.743c-0.265-0.002-0.578-0.003-0.891-0.003-67.345 0-121.939 54.594-121.939 121.938s54.594 121.938 121.939 121.938c67.345 0 121.939-54.594 121.939-121.938 0-0.062 0-0.123 0-0.185v0.010c-0.099-66.957-54.148-121.256-121-121.76h-0.048z" />
<glyph unicode="&#xe124;" glyph-name="media-shuffle" d="M418.909 402.424l93.091-73.076-93.091-73.231zM418.909 193.28l93.091-73.231-93.091-73.077zM478.952 104.844h-102.865c-0.025 0-0.054 0-0.084 0-60.499 0-113.138 33.651-140.221 83.257l-0.417 0.835-32.737 60.82c-20.733 38.062-60.441 63.457-106.082 63.457-0.014 0-0.029 0-0.044 0h-96.502v39.098h96.504c0.025 0 0.054 0 0.084 0 60.499 0 113.138-33.651 140.221-83.257l0.417-0.835 32.737-60.819c20.733-38.062 60.442-63.457 106.082-63.457 0.014 0 0.029 0 0.044 0h102.708zM116.519 104.844h-116.519v39.253h116.519c0.013 0 0.027 0 0.042 0 45.641 0 85.35 25.395 105.767 62.827l0.315 0.63 32.737 60.82c27.5 50.441 80.139 84.092 140.639 84.092 0.029 0 0.059 0 0.088 0h82.691v-39.253h-82.541c-0.012 0-0.027 0-0.042 0-45.64 0-85.35-25.395-105.767-62.827l-0.315-0.631-32.737-60.819c-27.5-50.441-80.139-84.093-140.639-84.093-0.084 0-0.168 0-0.251 0h0.013z" />
<glyph unicode="&#xe125;" glyph-name="media-snapshot" d="M512 27.502h-512v328.787h124.54l39.715 68.359h189.44l40.406-65.176h117.899zM27.675 55.178h456.649v276.757h-105.582l-40.406 65.038h-158.443l-40.13-68.359h-112.087zM259.045 105.687c-51.815 0-93.82 42.005-93.82 93.82s42.005 93.82 93.82 93.82c51.815 0 93.82-42.005 93.82-93.82v0c0-51.815-42.005-93.82-93.82-93.82v0zM259.045 265.514c-36.531 0-66.145-29.614-66.145-66.145s29.614-66.145 66.145-66.145c36.531 0 66.145 29.614 66.145 66.145v0c0 36.531-29.614 66.145-66.145 66.145v0z" />
<glyph unicode="&#xe126;" glyph-name="media-stop" d="M0 480h512v-512h-512v512z" />
<glyph unicode="&#xe127;" glyph-name="media-volume" d="M87.040 316.49h-87.040v-184.981h87.040l163.179-130.477v445.935l-163.179-130.478zM400.682 59.5c-9.12 0.003-16.512 7.396-16.512 16.516 0 6.012 3.212 11.274 8.014 14.163l0.075 0.041c47.774 29.073 79.242 80.786 79.442 139.863v0.030c0 0.15 0.001 0.328 0.001 0.506 0 52.188-24.7 98.608-63.047 128.207l-0.376 0.279c-4.399 3.012-7.247 8.009-7.247 13.67 0 9.121 7.394 16.516 16.516 16.516 4.176 0 7.991-1.55 10.899-4.107l-0.019 0.016c46.589-35.945 76.305-91.791 76.305-154.579 0-0.179 0-0.357 0-0.536v0.028c-0.201-71.093-38.022-133.308-94.596-167.807l-0.868-0.492c-2.409-1.454-5.319-2.313-8.43-2.313-0.056 0-0.112 0-0.168 0.001h0.009zM332.8 123.252c-9.108 0.018-16.485 7.406-16.485 16.516 0 6.783 4.089 12.611 9.937 15.154l0.106 0.041c27.625 11.836 46.625 38.792 46.625 70.186 0 29.863-17.192 55.71-42.219 68.185l-0.442 0.199c-5.539 2.753-9.279 8.372-9.279 14.865 0 9.138 7.408 16.546 16.546 16.546 2.646 0 5.146-0.621 7.363-1.724l-0.096 0.043c36.323-18.238 60.815-55.197 60.815-97.878 0-44.727-26.897-83.172-65.398-100.042l-0.702-0.274c-1.966-1.036-4.279-1.693-6.733-1.815l-0.039-0.002z" />
<glyph unicode="&#xe128;" glyph-name="uniE128" horiz-adv-x="461" d="M-9652.745 14662.836h13193.336v-23012.514h-13193.336v23012.514z" />
<glyph unicode="&#xe129;" glyph-name="uniE129" horiz-adv-x="461" d="M0 480h94.779v-512h-94.779v512z" />
<glyph unicode="&#xe12a;" glyph-name="uniE12A" horiz-adv-x="461" d="M365.471 480h94.779v-512h-94.779v512z" />
<glyph unicode="&#xe130;" glyph-name="uniE130" horiz-adv-x="387" d="M-7507.507 11073.103h14124.138v-24636.068h-14124.138v24636.068z" />
<glyph unicode="&#xe131;" glyph-name="uniE131" horiz-adv-x="387" d="M0 480l386.791-256.101-386.791-255.899v512z" />
<glyph unicode="&#xe132;" glyph-name="media-next1" horiz-adv-x="465" d="M0 480l371.194-245.591-371.194-245.826v491.417zM417.74 473.918h46.779v-505.918h-46.779v505.918z" />
<glyph unicode="&#xe134;" glyph-name="media-previous1" horiz-adv-x="465" d="M464.519-11.417l-371.194 245.826 371.194 245.591v-491.417zM0 473.918h46.779v-505.918h-46.779v505.918z" />
<glyph unicode="&#xe135;" glyph-name="a-54" horiz-adv-x="387" d="M0 480l386.635-255.865-386.635-256.135v512z" />
<glyph unicode="&#xe136;" glyph-name="a-55" horiz-adv-x="447" d="M446.346-24.651l-375.303 248.895 375.303 248.405v-497.301z" />
<glyph unicode="&#xe137;" glyph-name="a-56" horiz-adv-x="777" d="M776.323-32l-386.396 256.252 386.396 255.748v-512zM386.396-32l-386.396 256.252 386.396 255.748v-512z" />
<glyph unicode="&#xe138;" glyph-name="a-57" horiz-adv-x="777" d="M0 480l386.396-255.748-386.396-256.252v512zM389.927 480l386.396-255.748-386.396-256.252v512z" />
<glyph unicode="&#xe139;" glyph-name="a-58" horiz-adv-x="442" d="M0 480l371.043-245.585-371.043-246.070v491.656z" />
<glyph unicode="&#xe140;" glyph-name="a-59" horiz-adv-x="705" d="M94.465 432.767c0-26.086-21.147-47.233-47.233-47.233s-47.233 21.147-47.233 47.233c0 26.086 21.146 47.233 47.233 47.233s47.233-21.147 47.233-47.233zM106.273 15.233c0-26.086-21.147-47.233-47.233-47.233s-47.233 21.147-47.233 47.233c0 26.086 21.147 47.233 47.233 47.233s47.233-21.147 47.233-47.233zM94.465 224c0-26.086-21.147-47.233-47.233-47.233s-47.233 21.147-47.233 47.233c0 26.086 21.146 47.233 47.233 47.233s47.233-21.147 47.233-47.233z" />
<glyph unicode="&#xe141;" glyph-name="a-60" horiz-adv-x="639" d="M509.44 480l129.28-101.546-129.28-101.546zM130.133-32l-128.853 101.546 128.853 101.546v-203.094zM576 227.84v-18.347c0-0.127 0.001-0.277 0.001-0.428 0-62.296-50.379-112.824-112.618-113.066h-427.117v-54.613h426.666c92.372 0 167.253 74.882 167.253 167.253v62.293zM54.614 224v17.066c1.194 61.379 51.119 110.705 112.617 110.934h426.689v56.32h-426.666c-92.371 0-167.254-74.882-167.254-167.254v0-59.734z" />
<glyph unicode="&#xe142;" glyph-name="a-61" horiz-adv-x="738" d="M603.66 480l134.25-105.548-134.25-105.085zM603.66 178.633l134.25-105.548-134.25-105.085zM690.228 51.327h-148.137c-87.064 0.212-162.81 48.46-202.159 119.635l-0.603 1.19-46.293 87.493c-29.599 55.262-86.825 92.284-152.725 92.586h-140.31v55.551h138.879c87.064-0.212 162.81-48.46 202.159-119.635l0.603-1.19 46.293-87.493c29.599-55.262 86.825-92.284 152.725-92.585h148.18zM168.043 51.327h-168.043v58.329h168.043c66.123 0.12 123.558 37.19 152.775 91.657l0.455 0.928 49.070 84.716c39.842 72.55 115.611 120.978 202.72 121.288h119.48v-56.941h-121.75c-0.404 0.004-0.88 0.005-1.357 0.005-65.69 0-122.858-36.486-152.345-90.299l-0.454-0.903-46.293-87.957c-39.879-72.232-115.416-120.433-202.245-120.825h-0.055z" />
<glyph unicode="&#xe143;" glyph-name="a-62" horiz-adv-x="575" d="M99.73 330.012h-99.73v-212.024h99.73l187.681-149.988v512l-187.681-149.988z" />
<glyph unicode="&#xe144;" glyph-name="a-63" horiz-adv-x="303" d="M0-32l302.812 256-302.812 256v-512z" />
<glyph unicode="&#xe150;" horiz-adv-x="761" d="M18.009 459.83h724.328v-473.82h-724.328v473.82z" />
<glyph unicode="&#xe151;" horiz-adv-x="761" d="M18.009 459.83h724.328v-473.82h-724.328v473.82z" />
<glyph unicode="&#xe152;" horiz-adv-x="761" d="M742.337 461.991v-475.981h-724.328v475.981h724.328zM760.346 480h-760.346v-512h760.346v512z" />
<glyph unicode="&#xe153;" horiz-adv-x="761" d="M359.462 160.878l84.103 63.032-84.103 63.212v-126.244z" />
<glyph unicode="&#xe600;" glyph-name="uniE600" d="M461.926 362.957l-64.947 60.928-62.055-66.125-66.048 66.688v-190.822h189.159l-60.339 60.851zM52.327 210.663l66.841-65.869-65.843-62.285 61.133-64.768 68.326 64.563 61.056-60.16-0.717 189.235z" />
<glyph unicode="&#xe601;" glyph-name="uniE601" d="M56.55 436.889h88.371v-87.014h-88.371v87.014zM204.339 436.889h261.811v-87.014h-261.811v87.014zM204.339 290.329h261.811v-86.989h-261.811v86.989zM204.339 143.744h261.811v-86.963h-261.811v86.963zM56.55 290.329h88.371v-86.989h-88.371v86.989zM56.55 143.744h88.371v-86.963h-88.371v86.963z" />
<glyph unicode="&#xe602;" glyph-name="uniE602" d="M170.112 435.891h65.254v-55.142h-65.255v55.142zM270.233 435.891h65.305v-55.142h-65.305v55.142zM170.112 317.747h65.254v-55.065h-65.255v55.065zM270.233 317.747h65.305v-55.065h-65.305v55.065zM170.112 199.501h65.254v-55.040h-65.255v55.040zM270.233 199.501h65.305v-55.040h-65.305v55.040zM170.112 81.459h65.254v-55.142h-65.255v55.142zM270.233 81.459h65.305v-55.142h-65.305v55.142z" />
<glyph unicode="&#xe603;" glyph-name="uniE603" d="M0 457.6h512v-78.4h-512v78.4zM206.4 326.4h305.6v-78.4h-305.6v78.4zM206.4 193.6h305.6v-78.4h-305.6v78.4zM0 62.4h512v-78.4h-512v78.4zM0 118.4v206.4l144-102.4z" />
<glyph unicode="&#xe604;" glyph-name="uniE604" d="M11.2 462.4h500.8v-76.8h-500.8v76.8zM214.4 334.4h297.6v-76.8h-297.6v76.8zM214.4 204.8h297.6v-76.8h-297.6v76.8zM11.2 76.8h500.8v-76.8h-500.8v76.8zM140.8 334.4v-203.2l-140.8 100.8z" />
<glyph unicode="&#xe605;" glyph-name="uniE605" d="M460.032 377.37h-114.406l-90.394-96.538-90.445 96.538h-114.355l147.584-157.645-146.918-156.851h114.381l89.754 95.821 89.754-95.821h114.304l-146.893 156.851z" />
<glyph unicode="&#xe606;" glyph-name="uniE606" d="M107.059 111.462c-6.809 15.411-10.496 32.154-10.496 49.485 0 32.845 12.826 63.693 36.070 86.912 23.194 23.219 54.016 35.968 86.861 35.968s63.667-12.774 86.861-35.968c17.255-17.203 28.621-38.656 33.459-61.901l-58.854-65.92h170.624l-13.619 175.846-56.269-62.976c-8.704 19.686-20.966 37.888-36.711 53.581-33.536 33.536-78.080 51.993-125.491 51.993-47.463 0-92.032-18.457-125.491-51.993-33.536-33.561-52.019-78.080-52.019-125.517 0-16.998 2.483-33.587 7.194-49.485h57.881z" />
<glyph unicode="&#xe607;" glyph-name="uniE607" d="M402.56 114.663c6.81 15.411 10.445 32.128 10.445 49.485 0 32.845-12.749 63.693-36.019 86.912-23.193 23.219-54.041 35.968-86.835 35.968-32.87 0-63.744-12.749-86.887-35.968-17.203-17.203-28.672-38.656-33.434-61.926l58.829-65.894h-170.649l13.619 175.846 56.32-63.001c8.653 19.712 20.915 37.914 36.71 53.607 33.485 33.536 78.029 51.993 125.491 51.993 47.437 0 91.955-18.458 125.466-51.993 33.536-33.562 51.968-78.106 51.968-125.543 0-16.998-2.483-33.587-7.117-49.485h-57.907z" />
<glyph unicode="&#xe608;" glyph-name="uniE608" d="M54.861 341.658v-236.263h409.6v236.262h-409.6zM132.557 126.438h-54.707v52.992h54.733v-52.992zM132.557 197.351h-54.707v53.017h54.733v-53.017zM132.557 268.262h-54.707v52.992h54.733v-52.992zM360.038 124.365h-204.928v196.889h204.953v-196.889zM441.498 126.438h-54.758v52.992h54.759v-52.992zM441.498 197.351h-54.758v53.017h54.759v-53.017zM441.498 268.262h-54.758v52.992h54.759v-52.992zM301.363 233.063l-83.481-48.205v96.435l41.779-24.115z" />
<glyph unicode="&#xe609;" glyph-name="uniE609" d="M44.749 158.387h408.96v-68.070h-408.96v68.070zM385.894 330.087v69.017h-69.017v-69.017h-68.454v-69.043h68.454v-67.84h69.017v67.84h68.454v69.043z" />
<glyph unicode="&#xe60a;" glyph-name="uniE60A" d="M261.888 428.903c-113.152 0-204.774-91.904-204.774-204.8 0-112.999 91.623-204.8 204.774-204.8 113.024 0 204.774 91.802 204.774 204.8 0 112.921-91.725 204.8-204.774 204.8zM369.817 155.776l-39.168-39.271-68.634 68.352-68.429-68.352-39.194 39.27 68.352 68.352-68.352 68.429 39.194 39.45 68.429-68.48 68.327 68.301 39.475-39.424-68.352-68.301 68.352-68.327z" />
<glyph unicode="&#xe60b;" glyph-name="uniE60B" d="M259.891 329.421c0 0-17.741 9.728-38.477-1.792l-24.73-27.111c-0.231 1.408-0.819 2.816-1.946 3.814l-111.693 101.735c-2.637 2.509-6.861 2.304-9.344-0.409l-17.28-18.97c-2.458-2.688-2.253-6.886 0.486-9.344l111.591-101.811c1.178-1.024 2.509-1.485 3.968-1.562l-20.787-22.707c0 0-14.464-17.28-1.971-43.367l20.583-28.313 118.554 128.896-28.954 20.941zM445.671 226.944c0 0-101.017 39.219-138.47 72.115l-122.803-135.424c0 0 59.623-81.767 83.123-128.589 0 0 9.728-30.848 30.208-16.563 0 0 115.353 63.207 163.917 178.637 0-0.128 12.313 23.117-15.974 29.824zM427.264 178.176c-15.232-1.408-55.808 26.675-55.808 26.675-9.933-1.075-2.995-7.475-2.995-7.475 2.995-7.168 42.726-45.312 42.726-45.312l-21.325-28.928c-22.247 6.963-56.832 34.663-56.832 34.663-12.8 4.070-7.040-7.654-7.040-7.654l32.409-36.429c5.632-6.989 9.37-15.488 9.37-15.488l-27.469-24.601c-5.529 3.738-46.822 37.76-46.822 37.76-18.022 5.171-7.757-9.037-7.757-9.037 11.059-9.447 30.797-47.181 30.797-47.181l-27.238-15.872c-8.423 20.889-76.262 123.623-76.262 123.623l97.613 105.6c19.2-13.005 128.743-64.537 128.743-64.537 0.768-1.945-12.109-25.805-12.109-25.805z" />
<glyph unicode="&#xe60c;" glyph-name="uniE60C" d="M311.654 321.28h27.853v-25.881h-27.853v25.881zM339.507 347.264h27.904v-25.984h-27.904v25.984zM367.411 373.222h27.801v-25.958h-27.801v25.959zM395.213 347.264h27.827v-25.984h-27.827v25.984zM395.213 399.13h27.827v-25.933h-27.827v25.933zM423.014 425.063h27.853v-25.933h-27.853v25.933zM339.507 399.13h27.904v-25.933h-27.904v25.933zM311.654 425.063h27.853v-25.933h-27.853v25.933zM423.014 321.28h27.853v-25.881h-27.853v25.881zM425.83 233.319v-15.104h-76.928v18.509c-7.142 2.739-13.978 6.093-20.48 10.035v-28.544h-73.113v69.581h32.103c-4.019 6.425-7.45 13.338-10.137 20.506h-21.965v80.793h19.482c2.074 6.63 4.762 12.953 7.911 19.046h-231.706v-392.678h393.856v224.87c-6.118-2.841-12.416-5.222-19.021-7.014zM144.691 34.457h-74.599v73.293h74.599v-73.293zM144.691 128.307h-74.599v159.488h74.599v-159.488zM144.691 308.301h-74.599v80.793h74.599v-80.793zM328.423 34.457h-73.113v73.293h73.113v-73.293zM328.423 128.307h-73.113v69.504h73.113v-69.504zM425.83 34.457h-76.928v73.293h76.928v-73.293zM425.83 128.307h-76.928v69.504h76.928v-69.504z" />
<glyph unicode="&#xe60d;" glyph-name="uniE60D" d="M397.184 245.811c-45.005 0-84.352 24.627-105.344 61.133h-30.976v73.113h15.309c0.64 6.4 1.945 12.57 3.558 18.663h-217.344v-385.485h384.384v243.2c-15.155-6.81-31.949-10.624-49.587-10.624zM152.73 31.872h-71.629v75.315h71.629v-75.315zM152.73 127.155h-71.629v71.629h71.629v-71.629zM152.73 306.918h-71.629v73.139h71.629v-73.139zM240.896 31.872h-68.096v75.315h68.096v-75.315zM240.896 127.155h-68.096v71.629h68.096v-71.629zM240.896 306.918h-68.096v73.139h68.096v-73.139zM328.986 31.872h-68.121v75.315h68.121v-75.315zM328.986 127.155h-68.121v71.629h68.121v-71.629zM428.109 31.872h-79.079v75.315h78.669v19.942h-78.669v71.629h79.079v-166.887zM325.043 322.457h26.957v-25.088h-26.957v25.088zM352 347.571h26.906v-25.088h-26.906v25.088zM378.906 372.659h26.983v-25.088h-26.983v25.088zM405.863 347.571h26.906v-25.088h-26.906v25.088zM405.863 397.747h26.906v-25.088h-26.906v25.088zM432.768 422.835h26.906v-25.088h-26.906v25.088zM352 397.747h26.906v-25.088h-26.906v25.088zM325.043 422.835h26.957v-25.088h-26.957v25.088zM432.768 322.457h26.906v-25.088h-26.906v25.088z" />
<glyph unicode="&#xe60e;" glyph-name="uniE60E" d="M175.642 208.793l-0.179 26.419-57.984-0.333-0.256 48.077-26.522-0.231 0.205-22.887-26.471-0.154 0.153-25.139-26.471-0.179 0.179-26.47 26.445 0.179 0.205-25.139 26.419 0.154 0.153-22.861 26.471 0.128-0.333 48.051zM130.304 259.891l15.283 0.154-0.231 20.224 72.601 0.717 1.255-127.821-72.601-0.717-0.102 15.437-15.309-0.103 1.075-105.805 315.418 3.123-3.098 314.547-315.418-3.123 1.126-116.634zM431.693 138.906l0.589-58.599-61.543-0.615-0.589 58.624 61.543 0.589zM353.715 138.137l0.563-58.624-58.547-0.563-0.563 58.599 58.547 0.589zM206.643 136.678l0.614-58.649-59.853-0.563-0.589 58.599 59.827 0.615zM431.002 211.021l0.538-55.705-61.568-0.589-0.538 55.68 61.568 0.615zM353.024 210.227l0.538-55.68-58.547-0.615-0.538 55.757 58.547 0.538zM430.31 283.136l0.538-55.731-61.568-0.614-0.538 55.731 61.568 0.614zM352.281 282.342l0.563-55.705-58.573-0.589-0.538 55.731 58.547 0.563zM429.44 364.262l0.666-64.717-61.568-0.614-0.64 64.358-16.435-0.128 0.64-64.384-58.573-0.615-0.615 64.743 136.525 1.357zM204.416 362.010l0.64-64.717-59.853-0.589-0.614 64.743 59.827 0.563z" />
<glyph unicode="&#xe60f;" glyph-name="uniE60F" d="M331.008 208.793l0.179 26.419 57.959-0.333 0.307 48.077 26.445-0.231-0.154-22.887 26.471-0.154-0.154-25.139 26.471-0.179-0.205-26.47-26.445 0.179-0.179-25.139-26.419 0.154-0.154-22.861-26.471 0.128 0.281 48.051zM377.472 376.525l-315.418 3.123-3.123-314.522 315.418-3.123 1.050 105.805-15.309 0.103-0.103-15.437-72.627 0.743 1.28 127.795 72.653-0.717-0.281-20.224 15.309-0.179 1.152 116.634zM136.525 138.291l-0.614-58.624-61.568 0.615 0.589 58.599 61.593-0.589zM211.482 137.523l-0.589-58.599-58.573 0.563 0.589 58.624 58.573-0.589zM359.834 136.038l-0.589-58.599-59.853 0.563 0.615 58.649 59.827-0.615zM137.19 210.406l-0.537-55.705-61.594 0.615 0.563 55.706 61.568-0.615zM212.198 209.664l-0.563-55.757-58.573 0.615 0.537 55.705 58.599-0.563zM137.907 282.522l-0.563-55.706-61.568 0.589 0.563 55.731 61.568-0.614zM212.915 281.779l-0.563-55.731-58.573 0.589 0.563 55.705 58.573-0.563zM213.709 362.88l-0.614-64.743-58.599 0.64 0.666 64.384-16.461 0.128-0.614-64.358-61.568 0.614 0.665 64.717 136.525-1.382zM362.087 361.447l-0.666-64.743-59.853 0.589 0.64 64.717 59.879-0.563z" />
<glyph unicode="&#xe610;" glyph-name="uniE610" d="M248.601 156.672l26.573 0.128 0.256-58.189 48.231 0.154 0.077-26.573-23.040-0.103 0.128-26.522-25.241-0.103 0.128-26.573-26.599-0.077-0.077 26.547-25.267-0.077-0.077 26.547-23.014-0.077-0.102 26.599 48.231 0.154zM417.485 111.719v316.723h-315.801v-316.723h106.214v15.334h-15.539v72.883h128.358v-72.858h-20.327v-15.334h117.094zM175.872 351.283h-58.829v61.824h58.829v-61.824zM175.872 275.968h-58.829v58.829h58.829v-58.829zM175.872 127.053h-58.829v60.083h58.829v-60.083zM248.294 351.283h-55.936v61.824h55.936v-61.824zM248.294 275.968h-55.936v58.829h55.936v-58.829zM320.717 351.283h-55.962v61.824h55.962v-61.824zM320.717 275.968h-55.962v58.829h55.962v-58.829zM402.176 275.968h-65.024v58.829h64.666v16.486h-64.666v61.824h65.024v-137.139zM402.176 127.053h-65.024v60.083h65.024v-60.083z" />
<glyph unicode="&#xe611;" glyph-name="uniE611" d="M237.415 297.011l26.547-0.102 0.256 58.189 48.231-0.205 0.077 26.573-23.014 0.102 0.103 26.522-25.216 0.128 0.103 26.573-26.573 0.051-0.077-26.522-25.293 0.051-0.077-26.496-22.989 0.026-0.128-26.573 48.256-0.153zM289.203 341.965v-15.36h20.327v-72.858h-128.358v72.883h15.539v15.36h-106.215v-316.723h315.776v316.697h-117.069zM164.685 40.601h-58.829v61.824h58.829v-61.824zM164.685 118.912h-58.829v58.803h58.829v-58.803zM164.685 266.547h-58.829v60.083h58.829v-60.083zM237.107 40.601h-55.936v61.824h55.936v-61.824zM237.107 118.912h-55.936v58.803h55.936v-58.803zM309.529 40.601h-55.962v61.824h55.962v-61.824zM309.529 118.912h-55.962v58.803h55.962v-58.803zM390.938 40.601h-64.999v61.824h64.666v16.486h-64.666v58.803h64.999v-137.113zM390.938 266.547h-64.999v60.083h64.999v-60.083z" />
<glyph unicode="&#xe612;" glyph-name="uniE612" d="M54.425 418.714v-388.377h409.6v388.377h-409.6zM430.899 266.035h-91.161v73.319h91.161v-73.319zM213.76 169.037v65.101h94.183v-65.127h-94.183zM307.942 137.165v-71.117h-94.183v71.117h94.183zM181.888 169.037h-94.285v65.101h94.285v-65.101zM213.76 266.035v73.319h94.183v-73.319h-94.183zM339.738 234.137h91.161v-65.127h-91.161v65.126zM181.888 339.353v-73.319h-94.285v73.319h94.285zM87.603 137.165h94.285v-71.117h-94.285v71.117zM339.738 66.048v71.117h91.161v-71.117h-91.161z" />
<glyph unicode="&#xe613;" glyph-name="uniE613" d="M70.758 363.879h247.475v-27.546h-247.475v27.546zM219.059 281.293h247.501v-27.52h-247.501v27.52zM70.758 103.834h247.475v-27.52h-247.475v27.52zM345.318 103.834h122.778v-27.52h-122.778v27.52zM345.318 364.647h122.778v-27.52h-122.778v27.52zM301.056 198.733h165.504v-27.52h-165.504v27.52zM148.787 308.48l24.909-24.883-47.872-47.872h139.699v-35.277h-139.648l47.821-47.769-24.909-24.986-90.291 90.265 0.128 0.128-0.128 0.128z" />
<glyph unicode="&#xe614;" glyph-name="uniE614" d="M244.301 352.409h212.045v-23.577h-212.045v23.577zM244.301 281.625h212.045v-23.577h-212.045v23.577zM244.301 129.613h212.045v-23.577h-212.045v23.577zM115.917 129.613h105.191v-23.577h-105.191v23.577zM115.917 353.049h105.191v-23.577h-105.191v23.577zM244.301 210.893h141.773v-23.577h-141.773v23.577zM146.816 304.973l-21.376-21.376 41.011-41.011h-119.68v-30.183h119.629l-40.96-40.986 21.376-21.401 77.363 77.338-0.128 0.154 0.128 0.128z" />
<glyph unicode="&#xe615;" glyph-name="uniE615" d="M431.462 143.309l-8.858-42.061h-308.019l149.043 128.793-133.657 133.478h281.293v-42.010h24.423v95.846h-357.325v-78.259l124.774-124.877-156.877-136.576v-30.233h389.427l20.173 95.897z" />
<glyph unicode="&#xe616;" glyph-name="uniE616" d="M134.221 126.387c-19.533-19.993-37.094-29.952-52.659-29.952-9.139 0-16.743 3.456-22.835 10.394-6.041 6.938-9.063 15.591-9.063 26.061 0 14.157 5.223 26.906 15.77 38.169 10.522 11.315 33.433 26.368 68.761 45.133v18.662c0 13.977-0.64 22.835-1.946 26.47-1.28 3.61-3.738 6.81-7.45 9.498-3.661 2.688-7.757 4.045-12.365 4.045-7.424 0-13.543-1.894-18.329-5.735-2.995-2.381-4.429-5.145-4.429-8.346 0-2.765 1.536-6.221 4.787-10.291 4.326-5.734 6.477-11.213 6.477-16.435 0-6.502-2.099-12.006-6.246-16.614-4.173-4.557-9.626-6.81-16.384-6.81-7.194 0-13.235 2.483-18.073 7.526-4.889 4.966-7.296 10.905-7.296 17.638 0 9.523 3.251 18.662 9.779 27.264 6.528 8.704 15.616 15.335 27.29 19.942 11.623 4.634 23.757 6.963 36.352 6.963 15.232 0 27.238-3.763 36.096-11.187 8.883-7.475 14.592-15.565 17.229-24.294 1.613-5.53 2.406-18.304 2.406-38.297v-71.962c0-8.474 0.281-13.824 0.845-15.974 0.614-2.202 1.434-3.815 2.56-4.864 1.178-1.050 2.483-1.536 3.942-1.536 2.995 0 6.016 2.406 9.113 7.322l5.145-4.787c-5.734-9.805-11.623-16.896-17.792-21.325-6.093-4.429-13.030-6.63-20.762-6.63-9.191 0-16.358 2.483-21.504 7.424-5.12 4.966-8.269 12.467-9.421 22.528zM134.221 140.851v62.055c-13.824-9.37-24.090-19.405-30.848-30.106-4.454-7.117-6.681-14.387-6.681-21.632 0-6.093 1.843-11.443 5.657-16.051 2.841-3.635 6.835-5.376 11.981-5.376 5.734 0 12.365 3.687 19.891 11.111zM355.712 175.539h-82.176l-9.779-26.163c-3.2-8.729-4.813-15.949-4.813-21.606 0-7.526 2.663-13.107 7.885-16.666 3.123-2.099 10.701-3.738 22.861-4.762v-7.322h-77.389v7.322c8.345 1.485 15.181 5.453 20.583 12.007 5.351 6.528 12.032 20.019 19.865 40.55l83.225 214.553h3.226l83.891-220.518c8.013-20.864 14.567-34.022 19.738-39.424 3.865-4.096 9.37-6.502 16.486-7.142v-7.322h-112.537v7.322h4.634c9.037 0 15.385 1.485 19.046 4.352 2.509 2.125 3.738 5.146 3.738 9.113 0 2.406-0.333 4.813-1.024 7.347-0.231 1.178-1.945 6.118-5.171 14.873l-12.288 33.485zM349.824 190.259l-34.637 92.57-35.661-92.57h70.298z" />
<glyph unicode="&#xe617;" glyph-name="uniE617" d="M193.638 178.202h-79.975l-9.523-25.498c-3.072-8.499-4.633-15.514-4.633-21.017 0-7.322 2.56-12.749 7.654-16.256 2.969-2.048 10.368-3.61 22.247-4.659v-7.091h-75.315v7.091c8.115 1.433 14.823 5.325 20.019 11.673 5.273 6.4 11.725 19.558 19.379 39.475l81.024 208.896h3.174l81.664-214.681c7.808-20.327 14.183-33.127 19.2-38.375 3.763-4.019 9.113-6.323 16-6.989v-7.091h-109.543v7.091h4.506c8.806 0 14.976 1.433 18.535 4.301 2.406 1.997 3.661 4.992 3.661 8.832 0 2.381-0.333 4.736-0.973 7.168-0.281 1.152-1.946 5.965-5.043 14.49l-12.058 32.64zM188.006 192.461l-33.741 90.163-34.714-90.163h68.454zM396.058 130.304c-18.995-19.43-36.096-29.133-51.226-29.133-8.935 0-16.358 3.379-22.272 10.137-5.863 6.733-8.781 15.155-8.781 25.344 0 13.773 5.043 26.137 15.309 37.146s32.563 25.651 66.969 43.93v18.176c0 13.619-0.615 22.246-1.869 25.779-1.331 3.533-3.712 6.63-7.271 9.267s-7.577 3.942-12.058 3.942c-7.219 0-13.209-1.869-17.869-5.632-2.867-2.279-4.327-4.966-4.327-8.064 0-2.688 1.587-6.042 4.685-10.035 4.224-5.53 6.349-10.88 6.349-16.025 0-6.323-2.022-11.648-6.067-16.153-4.070-4.403-9.395-6.605-15.974-6.605-6.989 0-12.902 2.406-17.639 7.296-4.711 4.889-7.040 10.649-7.040 17.229 0 9.267 3.175 18.099 9.498 26.547 6.349 8.397 15.207 14.874 26.547 19.354 11.315 4.505 23.117 6.784 35.43 6.784 14.771 0 26.496-3.635 35.149-10.906 8.576-7.296 14.157-15.207 16.717-23.731 1.587-5.325 2.304-17.767 2.304-37.223v-70.067c0-8.243 0.333-13.44 0.87-15.565s1.357-3.661 2.509-4.711c1.127-0.998 2.406-1.536 3.84-1.536 2.841 0 5.863 2.355 8.909 7.091l4.941-4.608c-5.581-9.523-11.341-16.435-17.305-20.762s-12.672-6.451-20.301-6.451c-8.883 0-15.821 2.381-20.839 7.193-4.992 4.915-8.064 12.211-9.19 21.99zM396.058 144.384v60.416c-13.44-9.139-23.475-18.918-30.029-29.312-4.377-6.963-6.553-14.003-6.553-21.069 0-5.888 1.843-11.111 5.504-15.616 2.816-3.507 6.733-5.223 11.725-5.223 5.581 0 12.032 3.584 19.353 10.803z" />
<glyph unicode="&#xe618;" glyph-name="uniE618" d="M331.623 295.962l79.36-79.462c25.575-25.549-30.208-48.538-30.208-111.642 0-47.949 77.261-100.762 77.261-19.353v94.515c0 95.027-126.413 115.942-126.413 115.942zM372.327 216.397c-10.317 10.393-41.882 41.907-64.717 64.743-0.538 61.44-34.227 148.915-94.951 148.915-57.677 0-79.181-53.427-79.181-87.040h15.872c0 18.457 11.673 71.219 63.309 71.219 43.136 0 72.167-63.386 77.952-116.019-4.839 4.813-8.32 8.295-8.32 8.295 2.329-15.667 1.843-28.903 1.024-35.431 7.526-4.915 12.493-13.389 12.493-23.040 0-15.334-12.339-27.673-27.75-27.673-15.257 0-27.673 12.339-27.673 27.673 0 9.856 5.248 18.432 12.953 23.296 4.071 12.083 9.677 35.661 0.922 63.181l-16 16c-22.425 22.451-44.467 1.459-44.467 1.459l-141.389-141.338c-14.797-14.822 12.954-66.637 62.054-115.687 49.024-49.050 100.838-76.8 115.635-61.978 0 0 133.453 133.453 140.595 140.467 7.040 7.168 18.637 25.959 1.639 42.957z" />
<glyph unicode="&#xe619;" glyph-name="uniE619" d="M480 448v-448h-448v448h448zM512 480h-512v-512h512v512zM64 416v-384h384v384h-384zM278.4 265.6l-86.4 86.4 25.6 25.6 112-112c6.4-6.4 6.4-16 0-19.2l-112-112-25.6 25.6 86.4 86.4c6.4 6.4 6.4 12.8 0 19.2zM384 64h-256v32h256v-32z" />
<glyph unicode="&#xe61a;" glyph-name="uniE61A" d="M50.483 49.408l97.126 138.624-93.082 130.534h86.989l47.667-73.984 50.227 73.984h83.763l-91.367-127.488 99.712-141.671h-87.45l-54.861 83.379-55.296-83.379h-83.43zM460.083 294.553v-28.672h-109.338c1.152 10.777 4.736 21.069 10.624 30.797 5.939 9.625 17.613 22.528 35.123 38.554 14.029 12.902 22.656 21.683 25.805 26.317 4.301 6.349 6.477 12.647 6.477 18.816 0 6.912-1.843 12.186-5.632 15.872-3.738 3.712-8.935 5.555-15.462 5.555-6.553 0-11.725-1.971-15.565-5.837-3.84-3.891-5.99-10.317-6.656-19.328l-31.079 3.098c1.817 16.973 7.68 29.107 17.433 36.505 9.805 7.373 21.965 11.059 36.608 11.059 16.103 0 28.647-4.249 37.863-12.825 9.139-8.55 13.773-19.2 13.773-31.923 0-7.219-1.357-14.106-3.942-20.633-2.637-6.528-6.784-13.363-12.493-20.557-3.763-4.787-10.599-11.623-20.403-20.557-9.83-8.909-16.103-14.797-18.739-17.689-2.611-2.97-4.736-5.863-6.375-8.551h61.978z" />
<glyph unicode="&#xe61b;" glyph-name="uniE61B" d="M55.526 105.267l99.277 141.671-95.155 133.401h88.96l48.666-75.673 51.303 75.673h85.529l-93.261-130.329 101.862-144.717h-89.421l-56.013 85.171-56.474-85.197h-85.273zM465.152 102.963v-29.261h-111.744c1.255 11.034 4.864 21.581 10.906 31.462 6.067 9.856 17.971 22.963 35.84 39.347 14.336 13.209 23.168 22.169 26.445 26.88 4.327 6.502 6.553 12.954 6.553 19.303 0 7.040-1.92 12.416-5.735 16.179-3.815 3.815-9.088 5.658-15.846 5.658-6.605 0-11.93-1.971-15.872-5.913-3.891-3.968-6.195-10.547-6.784-19.738l-31.769 3.149c1.894 17.28 7.859 29.773 17.843 37.325 9.959 7.526 22.425 11.264 37.376 11.264 16.435 0 29.286-4.352 38.707-13.056 9.319-8.73 14.080-19.635 14.080-32.589 0-7.399-1.408-14.438-4.019-21.145-2.714-6.682-6.963-13.645-12.774-20.966-3.865-4.864-10.88-11.853-20.864-20.966-10.061-9.063-16.461-15.155-19.123-18.125-2.688-3.021-4.889-5.913-6.528-8.755h63.309z" />
<glyph unicode="&#xe61c;" glyph-name="uniE61C" d="M391.193 163.353c-33.101 0-60.749-23.475-67.226-54.656h-155.904v211.635h88.704l-103.219 103.245-103.296-103.245h87.322v-242.176h187.213c7.45-29.875 34.279-52.122 66.432-52.122 37.939 0 68.659 30.771 68.659 68.711-0.026 37.888-30.72 68.608-68.685 68.608z" />
<glyph unicode="&#xe61d;" glyph-name="uniE61D" d="M55.91 349.721v-337.869h337.894v337.869h-337.894zM363.161 42.522h-276.531v261.12h276.531v-261.12zM194.816 390.682h239.949v-245.735h30.745v276.454h-270.695z" />
<glyph unicode="&#xe61e;" glyph-name="uniE61E" d="M50.432 394.471v-316.519h409.6v316.519h-409.6zM422.733 115.149h-335.104v186.24h335.104v-186.24z" />
<glyph unicode="&#xe61f;" glyph-name="uniE61F" d="M45.67 131.277h409.523v-35.046h-409.523v35.046zM213.581 372.301h69.632v-105.856h-69.632v105.856zM246.631 162.406l107.29 105.395-70.553 0.614v0.077l-71.577 0.615v-0.077l-70.605 0.589z" />
<glyph unicode="&#xe620;" glyph-name="uniE620" d="M386.509 423.193v-125.184h-267.725v125.184h-67.481v-409.6h405.171v409.6h-69.965zM386.509 65.894h-265.856v41.421h265.856v-41.421zM157.491 422.707h51.097v-104.269h-51.097v104.269z" />
<glyph unicode="&#xe621;" glyph-name="uniE621" d="M254.745 197.171l180.505 180.966h-360.909l90.24-90.471zM458.701 346.778l-204.185-200.167-204.237 200.167h-0.282v-268.774h409.6v268.774z" />
<glyph unicode="&#xe622;" glyph-name="uniE622" d="M416.307 238.387l-291.328 209.408v-135.885h-0.128v-137.805h0.128v-135.911z" />
<glyph unicode="&#xe623;" glyph-name="uniE623" d="M97.664 236.8l291.303 209.408v-135.885h0.128v-137.83h-0.128v-135.885z" />
<glyph unicode="&#xe624;" glyph-name="uniE624" d="M466.586 35.993l-397.824 409.6 0.128-95.283-0.128-0.051-0.231-168.32h0.231v-143.59z" />
<glyph unicode="&#xe625;" glyph-name="uniE625" d="M264.166 373.094l-206.285-293.581 409.6 4.403z" />
<glyph unicode="&#xe626;" glyph-name="uniE626" d="M90.727 214.963l291.277 209.357v-135.885h0.128v-137.856h-0.128v-135.885z" />
<glyph unicode="&#xe627;" glyph-name="uniE627" d="M267.366 66.714l-206.285 293.581 135.885-1.433v0.153l137.805-1.459v-0.154l135.911-1.459z" />
<glyph unicode="&#xe628;" glyph-name="uniE628" d="M394.931 237.363l-291.303 209.357v-135.885h-0.103v-137.856h0.103v-135.885z" />
<glyph unicode="&#xe629;" glyph-name="uniE629" d="M47.974 400.231h409.139v-40.627h-409.139v40.627zM252.672 290.253l204.877-204.262-135.757-0.179v-1.075l-137.651-0.205v1.050l-135.731-0.205z" />
<glyph unicode="&#xe62a;" glyph-name="uniE62A" d="M101.145 429.696h40.653v-409.6h-40.653v409.6zM211.226 224.922l204.8 204.775v-135.885h1.127v-137.856h-1.127v-135.885z" />
<glyph unicode="&#xe62b;" glyph-name="uniE62B" d="M55.962 97.715h409.139v-40.653h-409.139v40.653zM260.711 167.065l204.851 204.211-135.757 0.231v1.101l-137.677 0.205v-1.101l-135.706 0.205z" />
<glyph unicode="&#xe62c;" glyph-name="uniE62C" d="M386.048 428.083h40.678v-409.6h-40.678v409.6zM316.595 223.334l-204.749 204.749v-135.885h-1.101v-137.856h1.101v-135.859z" />
<glyph unicode="&#xe62d;" glyph-name="uniE62D" d="M326.477 421.376h22.682v-67.021h-22.682v67.021zM151.808 421.376h22.656v-67.021h-22.656v67.021zM207.053 73.549h-104.704v208.461h295.322v-48.41c11.648-5.401 22.323-12.518 31.744-21.018v171.008h-64.409v-45.133h-54.425v45.133h-120.243v-45.133h-54.375v45.133h-65.382v-341.735h174.541c-7.424 9.575-13.491 20.173-17.971 31.693h-20.096zM344.909 226.176c-59.136 0-107.187-48.103-107.187-107.161 0-59.161 48.051-107.213 107.187-107.213 59.111 0 107.213 48.077 107.213 107.213-0.026 59.059-48.128 107.161-107.213 107.161zM344.909 40.166c-43.469 0-78.848 35.353-78.848 78.848 0 43.469 35.353 78.797 78.848 78.797s78.822-35.328 78.822-78.797c0-43.495-35.353-78.848-78.822-78.848zM356.070 119.014c0 4.634-2.739 8.576-6.681 10.394v51.865h-8.909v-51.635c-4.327-1.613-7.399-5.811-7.399-10.649 0-6.375 5.146-11.52 11.495-11.52 1.664 0 3.303 0.409 4.736 1.075l28.467-22.605 5.529 6.963-27.955 22.195c0.435 1.255 0.717 2.56 0.717 3.917z" />
<glyph unicode="&#xe62e;" glyph-name="uniE62E" d="M79.591 29.261h360.32v273.024h-360.32v-273.024zM330.675 270.438h77.338v-50.662h-77.337v50.662zM330.675 191.437h77.338v-51.226h-77.337v51.226zM330.675 111.719h77.338v-50.663h-77.337v50.663zM216.653 270.438h85.607v-50.662h-85.606v50.662zM216.653 191.437h85.607v-51.226h-85.606v51.226zM216.653 111.719h85.607v-50.663h-85.606v50.663zM111.463 270.438h76.723v-50.662h-76.723v50.662zM111.463 191.437h76.723v-51.226h-76.723v51.226zM111.463 111.719h76.723v-50.663h-76.723v50.663zM336.538 438.835h22.784v-67.302h-22.784v67.302zM375.245 400.896v-45.338h-54.63v45.338h-120.781v-45.338h-54.63v45.338h-65.613v-70.17h360.32v70.17zM161.101 438.835h22.784v-67.302h-22.784v67.302z" />
<glyph unicode="&#xe62f;" glyph-name="uniE62F" d="M358.528 251.034l5.913-5.965-0.154-73.037-5.913-5.939-0.307 0.256-162.918-162.227 0.205 84.48 120.602 120.038-120.115 120.653 0.205 84.454 162.227-162.995z" />
<glyph unicode="&#xe630;" glyph-name="uniE630" d="M154.675 284.621l-5.939-5.939 0.154-73.063 5.939-5.913 0.307 0.256 162.893-162.227-0.205 84.454-120.576 120.064 120.090 120.627-0.205 84.454-162.202-162.969z" />
<glyph unicode="&#xe631;" glyph-name="uniE631" d="M216.345 142.183l5.939-5.965h73.113l5.939 5.965-0.307 0.205 162.611 162.585h-84.429l-120.346-120.345-120.346 120.346h-84.48l162.56-162.585z" />
<glyph unicode="&#xe632;" glyph-name="uniE632" d="M284.211 143.411h-122.649l-14.592-39.014c-4.762-13.056-7.143-23.808-7.143-32.307 0-11.213 3.891-19.533 11.776-24.883 4.608-3.123 15.898-5.504 34.048-7.091v-10.957h-115.456v10.957c12.416 2.151 22.656 8.166 30.746 17.92 8.013 9.728 17.894 29.926 29.671 60.544l124.16 320.179h4.864l125.209-329.063c11.904-31.232 21.735-50.816 29.44-58.854 5.786-6.195 13.952-9.702 24.55-10.726v-10.957h-167.962v10.957h6.912c13.491 0 22.938 2.151 28.39 6.528 3.763 3.175 5.658 7.68 5.658 13.619 0 3.533-0.486 7.219-1.51 10.957-0.384 1.741-2.944 9.113-7.705 22.221l-18.406 49.971zM275.507 165.299l-51.738 138.189-53.248-138.189h104.986z" />
<glyph unicode="&#xe633;" glyph-name="uniE633" d="M92.877 270.695c5.12 4.352 13.107 6.553 23.91 6.553 11.571 0 20.275-3.021 26.137-8.986 4.352-4.429 6.528-12.083 6.528-22.938 0-0.973-0.025-3.226-0.102-6.938-0.768-0.256-1.638-0.589-2.483-0.87h25.677v2.535c0 11.802-0.384 19.968-1.126 24.499-1.382 7.271-3.738 13.312-7.143 18.125-3.43 4.736-8.755 8.704-16 11.853-7.194 3.123-16.589 4.736-28.211 4.736-11.597 0-21.862-1.843-30.72-5.555-8.832-3.686-15.641-8.986-20.301-15.821-4.71-6.81-8.064-15.821-10.061-26.931l22.451-3.507c2.457 11.111 6.272 18.841 11.443 23.245zM172.544 201.498h-23.398c-0.384-8.55-1.511-15.334-3.507-20.122-3.251-7.834-8.345-13.926-15.207-18.406-6.886-4.48-14.797-6.733-23.603-6.733-8.96 0-15.744 2.355-20.377 7.065-4.633 4.736-6.963 10.649-6.963 17.69 0 4.659 1.101 8.858 3.2 12.672 1.92 3.328 4.608 5.863 7.91 7.808h-30.976c-0.026-0.077-0.026-0.128-0.077-0.154-2.969-6.375-4.531-13.363-4.531-21.043 0-13.107 4.019-23.834 12.006-32.256 7.987-8.397 19.405-12.57 34.304-12.57 9.063 0 17.459 1.69 25.344 5.171 7.911 3.43 16.051 9.318 24.576 17.664 0.691-7.373 2.227-13.798 4.583-19.328h24.013c-2.893 5.99-4.813 12.262-5.811 18.791-0.922 6.298-1.408 20.889-1.485 43.75zM230.579 237.517c1.664 10.087 4.839 18.355 9.472 24.781 7.347 10.087 16.025 15.104 26.087 15.104 9.933 0 18.483-4.864 25.447-14.541 4.505-6.272 7.552-14.695 9.139-25.319h23.654c-0.691 4.839-1.613 9.549-2.841 14.054-2.739 9.959-6.477 18.406-11.289 25.447-4.839 6.989-10.983 12.493-18.432 16.333-7.399 3.917-15.385 5.888-23.68 5.888-15.053 0-27.417-7.065-37.12-21.145v77.184h-22.989v-117.786h22.554zM301.159 201.498c-1.51-12.211-4.813-21.888-10.035-29.133-7.296-10.061-16-15.079-26.035-15.079-12.339 0-22.093 6.861-29.338 20.505-2.995 5.581-4.915 13.44-5.913 23.705h-21.811v-62.49h21.325v19.61c9.088-15.437 21.657-23.117 37.683-23.117 16.077 0 29.875 7.322 41.344 21.939 8.755 11.161 14.106 25.856 16.256 44.083h-23.475zM371.533 237.517c1.639 10.778 4.787 19.353 9.472 25.523 7.193 9.549 16.589 14.362 28.211 14.362 7.654 0 14.183-2.662 19.61-7.962 5.427-5.325 9.139-13.261 11.289-23.757l22.323 3.994c-2.663 15.821-8.678 28.058-18.022 36.659s-21.427 12.928-36.096 12.928c-11.673 0-22.451-3.226-32.409-9.549-9.882-6.4-17.28-15.897-22.118-28.544-2.739-7.193-4.659-15.155-5.811-23.68h23.552zM430.515 166.912c-6.041-6.425-13.568-9.6-22.63-9.6-11.187 0-20.301 4.762-27.264 14.31-5.069 6.912-8.269 16.921-9.651 29.901h-23.68c1.817-18.841 7.168-33.869 16.128-45.031 11.289-14.003 26.189-20.992 44.749-20.992 14.797 0 27.264 5.069 37.478 15.257 10.137 10.189 16.486 24.269 18.944 42.24l-22.605 3.43c-1.587-13.337-5.427-23.142-11.469-29.517zM54.989 232.064h409.6v-25.114h-409.6v25.113z" />
<glyph unicode="&#xe634;" glyph-name="uniE634" d="M302.055 426.445v-21.223h17.817c9.575 0 16.486-2.457 20.941-7.577 1.101-1.229 4.557-7.091 4.557-31.053v-122.112c0-30.976-2.637-53.069-7.936-65.639-5.171-11.955-14.976-22.016-29.133-29.849-14.515-8.013-31.232-12.083-49.767-12.083-14.413 0-26.471 2.509-36.121 7.45-9.498 4.941-16.896 11.238-21.913 18.791-5.069 7.526-8.601 18.457-10.649 32.589-2.125 14.771-3.097 27.981-3.097 39.373v131.456c0 20.275 2.714 27.238 4.377 29.696 4.096 6.067 11.034 8.96 21.325 8.96h18.023v21.223h-143.181v-21.223h17.792c9.37 0 16.051-2.176 19.968-6.477 2.176-2.56 5.939-10.061 5.939-32.179v-117.888c0-37.427 2.56-62.413 7.577-76.467 7.577-20.505 20.608-37.069 38.733-49.152 18.048-12.083 44.519-18.227 78.541-18.227 31.36 0 56.781 6.323 75.29 18.969 18.663 12.672 31.36 28.211 37.888 46.106 6.17 17.382 9.293 41.805 9.293 72.627v122.24c0 20.889 2.534 26.803 3.661 28.518 5.274 8.115 12.185 11.904 21.939 11.904h17.767v21.248h-119.629zM131.021 63.437h246.963v-46.567h-246.963v46.567z" />
<glyph unicode="&#xe635;" glyph-name="uniE635" d="M223.257 420.531l-6.784-20.941h6.861c18.048 0 25.651-1.331 28.851-2.535 4.122-1.485 7.322-3.635 9.241-6.323 2.022-2.688 2.841-5.913 2.841-10.010 0-9.677-2.841-24.474-8.601-43.93l-69.504-241.049c-6.681-23.117-13.286-39.245-19.405-48.051-3.482-5.017-9.165-9.063-17.049-12.16-3.277-1.408-11.161-3.226-30.771-3.661l-3.379-0.128-7.962-20.864h175.513l6.041 20.582-6.323 0.409c-20.608 1.459-28.928 3.098-32.333 4.301-4.403 1.485-7.501 3.61-9.421 6.118-1.843 2.586-2.662 5.683-2.662 9.575s1.561 14.106 9.165 41.063l69.299 241.049c7.065 24.32 12.825 40.218 17.229 47.027 4.019 6.4 10.087 11.341 18.125 15.001 4.941 2.355 12.723 3.584 25.344 3.584 0.205 0 4.224-0.051 4.224-0.051l6.221 20.992h-164.762z" />
<glyph unicode="&#xe636;" glyph-name="uniE636" d="M411.827 199.245c-11.827 11.213-28.902 19.968-50.663 26.010 18.202 7.833 32.589 18.483 42.906 31.949 12.774 16.537 19.277 35.609 19.277 56.601 0 24.397-8.32 46.285-24.499 65.075-16.128 18.637-39.654 31.795-69.913 38.989-19.712 4.864-46.259 7.27-78.797 7.27h-177.613v-19.507h19.379c13.978 0 24.192-3.815 31.079-11.623 3.43-3.865 7.475-14.669 7.475-44.185v-259.021c0-26.803-3.302-37.504-6.016-41.677-6.579-9.447-17.203-14.131-32.538-14.131h-19.379v-19.481h193.613c45.389 0 79.821 4.25 102.195 12.774 22.707 8.729 40.806 22.656 53.939 41.523 13.056 18.893 19.661 38.963 19.661 59.699 0 27.392-10.189 50.739-30.106 69.734zM310.707 249.575c-13.926-5.965-35.149-8.96-63.257-8.96-11.059 0-21.248 0.307-30.541 0.999-7.731 0.512-14.72 1.408-21.095 2.432v147.149c14.618 3.61 31.078 5.53 48.947 5.53 35.482 0 62.617-8.038 80.845-23.783 18.329-15.846 27.238-34.432 27.238-56.832 0-14.285-3.61-27.699-10.906-39.731-7.168-11.955-17.741-21.017-31.232-26.803zM195.815 209.587c4.659 0.615 10.368 1.127 16.922 1.382 8.627 0.435 19.072 0.615 31.155 0.615 27.495 0 50.791-4.096 69.299-12.007 18.151-7.911 31.36-18.688 39.45-32.333 7.962-13.671 12.109-28.032 12.109-42.778 0-22.272-8.986-41.241-26.649-56.346-17.817-15.36-44.262-23.014-78.848-23.014-20.659 0-41.933 2.304-63.437 7.142v157.338z" />
<glyph unicode="&#xe637;" glyph-name="uniE637" d="M64.819 227.353l129.741 130.355v-61.261c259.584 0 279.885-153.395 279.885-184.038-55.962 122.624-279.885 61.312-279.885 61.312v-61.337l-129.741 114.969z" />
<glyph unicode="&#xe638;" glyph-name="uniE638" d="M469.632 222.541l-129.715 130.355v-61.261c-259.533 0-279.885-153.395-279.885-184.038 56.013 122.649 279.885 61.337 279.885 61.337v-61.337l129.715 114.944z" />
<glyph unicode="&#xe639;" glyph-name="uniE639" d="M134.989 227.533l204.723-204.851v135.911h0.179v137.779h-0.179v135.911z" />
<glyph unicode="&#xe63a;" glyph-name="uniE63A" d="M259.021 345.677l203.75-205.798-135.859 0.717v-0.179l-137.881 0.743v0.154l-135.859 0.717z" />
<glyph unicode="&#xe63b;" glyph-name="uniE63B" d="M250.035 98.534l203.802 205.798-135.885-0.743v0.179l-137.856-0.691v-0.154l-135.859-0.691z" />
<glyph unicode="&#xe63c;" glyph-name="uniE63C" d="M474.010 231.731l-109.209 109.773v-51.661c-218.496 0-235.648-129.126-235.648-154.905 47.155 103.219 235.648 51.635 235.648 51.635v-51.635l109.209 96.793zM310.17 95.13h-218.47v273.127h218.47v-27.341h27.289v54.656h-273.050v-327.757h273.050v54.605h-27.289z" />
<glyph unicode="&#xe63d;" glyph-name="uniE63D" d="M467.891 26.317v4.685c0 41.6-73.165 82.202-138.291 103.782-2.918 0.947-21.735 9.395-10.010 45.031h-0.179c30.567 31.488 53.939 82.125 53.939 132.019 0 76.697-51.021 116.864-110.285 116.864s-109.978-40.192-109.978-116.864c0-50.099 23.245-100.941 53.939-132.352 11.981-31.385-9.446-43.111-13.927-44.672-62.029-22.451-134.835-63.385-134.835-103.783v-4.685h409.625z" />
<glyph unicode="&#xe63e;" glyph-name="uniE63E" d="M378.419 384.973v-314.394h-253.235v314.394h-50.688v-365.056h354.637v365.056zM341.913 384.973h-43.699v44.544h-94.797v-44.544h-43.673v-36.531h182.195v36.531zM280.141 384.973h-58.624v28.416h58.624v-28.416zM182.733 218.675l-21.786-26.394 70.912-46.387 1.152-1.203 0.205 0.281 0.333-0.281 0.896 1.459 106.317 98.765-15.462 15.207-93.056-78.567z" />
<glyph unicode="&#xe63f;" glyph-name="uniE63F" d="M101.529 198.553v-179.507h123.008v125.875h64.819v-125.875h124.237v179.507l-152.832 119.654zM399.053 317.901v81.357h-54.81v-37.479l-83.43 66.867-212.198-170.342v-54.502l212.429 170.496 206.413-165.657v54.477z" />
<glyph unicode="&#xe640;" glyph-name="uniE640" d="M48.256 118.195h63.693v-56.448h-63.693v56.448zM163.584 118.195h63.693v-56.448h-63.693v56.448zM278.835 118.195h63.693v-56.448h-63.693v56.448zM394.137 118.195h63.693v-56.448h-63.693v56.448zM163.584 218.291h63.693v-56.397h-63.693v56.397zM278.835 218.291h63.693v-56.397h-63.693v56.397zM394.137 218.291h63.693v-56.397h-63.693v56.397zM278.835 318.387h63.693v-56.397h-63.693v56.397zM394.137 318.387h63.693v-56.397h-63.693v56.397zM394.137 418.457h63.693v-56.397h-63.693v56.397z" />
<glyph unicode="&#xe641;" glyph-name="uniE641" d="M249.037 427.289h24.73v-79.257h-24.73v79.257zM317.534 365.582l56.022 55.991 17.572-17.582-56.022-55.991-17.572 17.582zM190.994 348.023l-56.083 56.003 17.547 17.571 56.083-56.003-17.547-17.571zM252.288 96.947h24.73v-79.283h-24.73v79.283zM208.534 79.424l-56.083-56.004-17.547 17.571 56.083 56.004 17.547-17.571zM335.087 96.955l56.022-55.991-17.536-17.546-56.022 55.991 17.536 17.546zM396.365 253.517h40.704c-1.050 31.59-24.883 56.935-54.221 56.935h-105.984v-40.653h105.984c6.887 0 12.697-7.27 13.517-16.281zM395.238 185.523c-2.151-6.323-6.938-10.854-12.39-10.854h-105.984v-40.678h105.984c27.673 0 50.432 22.477 53.811 51.533h-41.421zM377.677 236.544h89.011v-33.792h-89.011v33.792zM126.49 190.95h-40.704c1.024-31.616 24.858-56.96 54.221-56.96h105.984v40.601h-105.984c-6.887 0-12.723 7.296-13.517 16.358zM127.591 258.893c2.151 6.349 6.989 10.88 12.39 10.88h105.984v40.653h-105.984c-27.623 0-50.458-22.477-53.811-51.533h41.421zM56.218 241.613h88.986v-33.792h-88.986v33.792z" />
<glyph unicode="&#xe642;" glyph-name="uniE642" d="M177.101 153.83c-42.957-0.026-78.285 28.185-78.746 62.797l-0.128 7.68c-0.409 35.149 34.739 64.256 78.413 64.819l65.869 0.845-0.461 40.473-65.946-0.845c-69.453-0.896-125.363-48.435-124.647-105.933l0.102-7.654c0.691-56.576 56.935-102.681 125.287-102.681l67.968 0.845-0.537 40.525-67.174-0.87zM460.954 228.966c-0.666 56.601-56.909 102.682-125.338 102.682l-67.917-0.845 0.563-40.474 67.123 0.819c42.983 0 78.336-28.16 78.771-62.797l0.077-7.654c0.461-35.2-34.688-64.307-78.361-64.845l-65.894-0.845 0.512-40.474 65.945 0.845c33.433 0.461 64.743 11.571 88.243 31.309 23.834 20.019 36.736 46.515 36.352 74.649l-0.077 7.629zM199.705 238.182l112.655 1.386 0.403-32.764-112.654-1.386-0.403 32.764z" />
<glyph unicode="&#xe643;" glyph-name="uniE643" d="M258.918 431.462c-113.075 0-204.826-91.673-204.826-204.8s91.751-204.8 204.826-204.8c113.126 0 204.8 91.673 204.8 204.8 0 113.152-91.673 204.8-204.8 204.8zM258.918 47.591c-98.918 0-179.021 80.256-179.021 179.072 0 98.893 80.102 179.047 179.021 179.047 98.841 0 179.072-80.154 179.072-179.047 0-98.816-80.205-179.072-179.072-179.072zM280.038 226.662c0-11.955-9.753-21.683-21.709-21.683-12.006 0-21.709 9.728-21.709 21.683 0 12.006 9.702 21.683 21.709 21.683 11.981 0.025 21.709-9.677 21.709-21.683zM271.789 224.935l59.772-47.397-10.45-13.178-59.772 47.397 10.45 13.178zM250.573 344.371h16.768v-110.413h-16.768v110.413z" />
<glyph unicode="&#xe644;" glyph-name="uniE644" d="M431.591 215.731c0.051 8.832-0.793 17.536-2.099 26.035l35.507 28.314c-9.165 34.099-26.777 64.615-50.663 89.165l-42.419-16.026c-13.414 11.136-28.595 20.045-45.184 26.419l-6.784 44.825c-16.333 4.327-33.433 6.963-51.2 7.091-17.741 0.103-34.867-2.304-51.405-6.451l-7.168-44.723c-16.64-6.246-32.077-14.874-45.619-25.881l-42.266 16.589c-24.141-24.192-42.138-54.553-51.712-88.499l35.2-28.8c-1.382-8.448-2.329-17.152-2.483-26.035-0.025-8.986 0.793-17.639 2.176-26.137l-35.584-28.262c9.165-34.074 26.829-64.615 50.663-89.19l42.343 16.051c13.465-11.136 28.749-19.993 45.261-26.368l6.707-44.825c16.435-4.377 33.536-6.963 51.277-7.040 17.767-0.103 34.867 2.253 51.303 6.375l7.424 44.8c16.512 6.195 31.923 14.873 45.491 25.728l42.163-16.589c24.166 24.346 42.137 54.656 51.789 88.55l-35.2 28.697c1.459 8.55 2.355 17.255 2.483 26.189zM266.88 131.917c-46.797 0.256-84.48 38.477-84.198 85.325s38.502 84.634 85.35 84.327c46.848-0.256 84.633-38.579 84.301-85.376-0.358-46.95-38.553-84.557-85.453-84.275z" />
<glyph unicode="&#xe645;" glyph-name="uniE645" d="M370.586 250.726h-116.070v-230.169l168.474 0.256v178.227l-52.403 51.686zM410.163 33.152l-142.413-0.256v205.517h102.81v-39.373h39.603v-165.888zM299.93 390.067c0.051-0.538 0.179-1.024 0.179-1.536v-19.175c0-10.675-8.678-19.405-19.379-19.405h-130.765c-10.649 0-19.353 8.73-19.353 19.405v19.175c0 0.512 0.077 1.024 0.154 1.536h-38.809v-278.605h152.935v146.867h93.85v131.738h-38.81zM280.704 400.666h-31.078v17.382c0 6.681-4.659 12.135-10.496 12.135h-43.52c-5.863 0-10.547-5.453-10.547-12.135v-17.383h-35.097c-6.656 0-12.109-5.427-12.109-12.135v-19.174c0-6.707 5.427-12.135 12.109-12.135h130.739c6.63 0 12.109 5.427 12.109 12.135v19.174c0 6.707-5.453 12.135-12.109 12.135zM232.55 386.841h-29.312v25.241h29.312v-25.241z" />
<glyph unicode="&#xe646;" glyph-name="uniE646" d="M391.654 306.995h-15.462v87.347c0 20.147-16.384 36.505-36.582 36.505h-123.111l-26.624-28.083h-0.358l-91.059-96.486v-185.472c0-20.173 16.358-36.557 36.583-36.557h57.754v-32.845c0-16.64 13.491-30.157 30.131-30.157h168.73c16.615 0 30.131 13.491 30.131 30.157v225.485c0 16.64-13.517 30.106-30.131 30.106zM135.040 113.51c-4.096 0-7.398 3.277-7.398 7.296v177.792l54.503 0.231c46.592-3.635 47.769 38.554 47.769 38.554v64.256h109.671c4.045 0 7.296-3.251 7.296-7.271v-87.347h-56.755l-22.016-23.117h-0.205l-75.111-79.616v-90.778h-57.754zM397.645 51.405c0-3.379-2.663-6.041-5.99-6.041h-168.73c-3.328 0-5.99 2.663-5.99 6.041v146.56l44.903 0.231c38.425-3.021 39.45 31.744 39.45 31.744v52.966h90.394c3.328 0 5.99-2.688 5.99-5.99v-225.51z" />
<glyph unicode="&#xe647;" glyph-name="uniE647" d="M266.496 434.253l50.867-156.416h164.506l-133.12-96.717 50.867-156.467-133.12 96.717-133.069-96.717 50.791 156.467-133.043 96.717h164.506z" />
<glyph unicode="&#xe648;" glyph-name="uniE648" d="M374.912 275.379c-9.6-1.92-12.467-23.834-13.056-35.661-0.717-11.879-8.371-9.625-8.371-9.625-10.931-2.56-5.351 38.221-6.989 57.728-1.562 16.64-22.477 16.64-29.773 13.184-8.832-4.147-2.918-40.576-7.194-50.406-4.608-10.957-14.592-1.664-14.592-1.664 0 64.409-2.534 64.256-6.375 68.762-3.865 4.454-19.046 6.169-26.035 1.715-7.091-4.48-5.606-68.378-5.606-68.378-14.976-7.962-12.8 5.12-12.8 5.12s-0.384 128.051-0.947 149.709c-0.666 21.632-18.304 21.017-23.296 21.99-4.966 0.947-17.613-4.173-18.867-20.813-0.896-11.648 2.253-224.666 2.253-224.666 0 16.947-23.987 48.077-23.987 48.077-41.369 34.586-66.534 10.931-66.841 3.072-0.384-7.911-3.712-12.39 23.194-27.776 26.931-15.411 48.077-91.008 64.179-143.513 15.975-52.582 84.992-42.265 84.992-42.265s31.283-3.584 52.122 0c22.707 3.815 17.562-1.305 41.395 59.315 26.471 66.944 19.558 161.715 18.841 177.767-0.691 15.975-12.647 20.25-22.247 18.329z" />
<glyph unicode="&#xe649;" glyph-name="uniE649" d="M243.507 167.654l-84.582 182.375-0.717-0.231v0.231h-111.001v-25.498h88.96l84.557-182.323 0.435 0.128v-0.128l176.358 1.024v25.447zM298.445 96.563c0-19.483-15.794-35.277-35.277-35.277s-35.277 15.794-35.277 35.277c0 19.483 15.794 35.277 35.277 35.277s35.277-15.794 35.277-35.277zM397.414 96.563c0-19.483-15.794-35.277-35.277-35.277s-35.277 15.794-35.277 35.277c0 19.483 15.794 35.277 35.277 35.277s35.277-15.794 35.277-35.277zM191.463 316.774l61.927-135.783h143.539l59.879 135.783z" />
<glyph unicode="&#xe64a;" glyph-name="uniE64A" d="M229.069 166.63l-79.744 171.929-0.666-0.231v0.231h-104.653v-24.038h83.865l79.693-171.904 0.435 0.128v-0.128h245.607v24.013zM260.25 181.863h124.109l57.421 131.021-102.502 1.536v0.179l-22.553-0.077-22.528 0.077-0.077-0.179-102.425-0.256 57.37-132.301zM281.677 103.219c0-18.366-14.889-33.255-33.255-33.255s-33.255 14.889-33.255 33.255c0 18.366 14.888 33.255 33.255 33.255s33.255-14.889 33.255-33.255zM448.717 103.219c0-18.366-14.889-33.255-33.255-33.255s-33.255 14.889-33.255 33.255c0 18.366 14.889 33.255 33.255 33.255s33.255-14.889 33.255-33.255z" />
<glyph unicode="&#xe64b;" glyph-name="uniE64B" d="M408.755 8.166l49.741 49.767c-50.637 55.731-101.709 101.965-157.568 159.514 34.714 19.353 58.214 34.202 93.568 52.787 0.717 8.473-344.883 149.351-343.936 147.507 49.894-112.205 92.595-233.83 141.261-348.262 20.966 31.872 39.194 63.462 59.776 95.104 51.737-53.274 104.781-104.243 157.158-156.416z" />
<glyph unicode="&#xe64c;" glyph-name="uniE64C" d="M462.873 107.264l-171.469 293.683c-5.99 10.265-16.947 16.538-28.8 16.538s-22.784-6.298-28.8-16.538l-171.417-293.683c-6.041-10.24-6.067-22.989-0.128-33.408 5.939-10.317 16.998-16.691 28.903-16.691h342.938c11.981 0 22.938 6.375 28.954 16.691 5.863 10.419 5.863 23.168-0.179 33.408zM282.137 115.891h-39.040v34.151h39.066v-34.151zM243.097 178.022l6.093 134.4h26.803l6.144-134.4h-39.040z" />
<glyph unicode="&#xe64d;" glyph-name="uniE64D" d="M335.257 189.747c35.712 49.69 36.045 118.835-3.712 169.369-48.154 61.21-136.806 71.808-198.016 23.655-61.286-48.179-71.808-136.883-23.68-198.119 40.32-51.175 108.851-66.791 166.067-42.419l109.286-138.854 59.75 47.027-109.696 139.341zM304.461 249.907h-173.542v42.010h173.542v-42.010z" />
<glyph unicode="&#xe64e;" glyph-name="uniE64E" d="M338.304 195.123c35.738 49.741 36.096 118.912-3.661 169.421-48.205 61.235-136.806 71.783-198.067 23.629-61.261-48.205-71.808-136.832-23.654-198.067 40.294-51.2 108.851-66.816 166.067-42.471l109.261-138.855 59.801 46.976-109.747 139.366zM307.584 255.283h-65.792v-65.715h-42.010v65.715h-65.766v42.035h65.767v65.767h42.010v-65.767h65.792v-42.035z" />
<glyph unicode="&#xe64f;" glyph-name="uniE64F" d="M404.48 370.483c-80 80-209.561 79.974-289.587 0-79.975-79.974-79.975-209.613 0-289.613 80.025-80.025 209.664-80.025 289.587 0 80 79.949 80 209.613 0 289.613zM387.046 353.049c70.4-70.349 70.323-184.397 0-254.771-70.272-70.323-184.345-70.323-254.695 0-70.4 70.375-70.4 184.423 0 254.771 70.272 70.349 184.423 70.349 254.695 0zM259.635 348.442l95.257-95.13h-62.771v-150.375h-55.168v150.375h-72.448z" />
<glyph unicode="&#xe650;" glyph-name="uniE650" d="M397.696 83.046c80 79.974 80.077 209.613 0 289.613-79.949 80-209.613 80-289.587 0-79.949-80-80.025-209.639 0-289.613 80-79.974 209.639-79.974 289.587 0zM125.543 355.2c70.374 70.4 184.423 70.4 254.771 0 70.375-70.374 70.375-184.397 0-254.771-70.349-70.298-184.423-70.375-254.797 0-70.349 70.375-70.272 184.448 0.025 254.771zM130.099 227.865l95.207-95.207v62.745h150.375v55.194h-150.375v72.448z" />
<glyph unicode="&#xe651;" glyph-name="uniE651" d="M406.425 367.975c-79.923 80-209.613 80.025-289.613 0-79.975-80-79.975-209.664 0-289.613 80-79.949 209.613-80 289.613 0 79.974 80 79.974 209.639 0 289.613zM134.298 95.795c-70.374 70.349-70.374 184.397 0 254.745 70.323 70.349 184.423 70.349 254.745 0 70.272-70.375 70.349-184.397 0-254.745s-184.448-70.349-254.745 0zM261.606 100.403l95.181 95.155h-62.72v150.375h-55.194v-150.375h-72.474z" />
<glyph unicode="&#xe652;" glyph-name="uniE652" d="M118.963 377.6c-80-80-80-209.587 0-289.613 80-80 209.638-80 289.613 0 80 80.025 80 209.613 0 289.613s-209.638 79.974-289.613 0zM391.168 105.421c-70.375-70.375-184.423-70.375-254.848 0-70.323 70.349-70.323 184.397 0 254.72 70.4 70.349 184.474 70.4 254.848 0 70.375-70.323 70.375-184.397 0-254.72zM386.56 232.73l-95.155 95.232v-62.72h-150.4v-55.193h150.4v-72.448z" />
<glyph unicode="&#xe653;" glyph-name="uniE653" d="M120.32 198.682l32.179-6.784 2.253-30.643 38.4-13.645-1.101-26.931 38.297-16.64 0.435-25.523 160.717 147.738-110.464 120.166zM56.96 35.84l86.016 10.931-67.942 73.907zM461.005 320.256l-78.259 85.043c-9.549 10.419-27.801 9.063-40.807-2.893l-17.639-16.281 112.589-122.547 17.69 16.307c12.979 11.929 15.872 30.029 6.425 40.371z" />
<glyph unicode="&#xe654;" glyph-name="uniE654" d="M261.453 433.229c-112.947 0-204.8-91.878-204.8-204.8 0-112.896 91.853-204.8 204.8-204.8s204.8 91.904 204.8 204.8c0 112.921-91.853 204.8-204.8 204.8zM261.453 63.693c-90.983 0-164.736 73.805-164.736 164.736 0 90.983 73.754 164.736 164.736 164.736 91.008 0 164.762-73.754 164.762-164.736-0.026-90.931-73.753-164.736-164.762-164.736zM246.605 348.211l-6.835-139.085h43.366l-6.835 139.085zM239.769 159.411h43.366v-37.939h-43.367v37.939z" />
<glyph unicode="&#xe655;" glyph-name="uniE655" d="M397.747 372.582c-81.28 78.669-210.944 76.672-289.639-4.608-78.669-81.254-76.672-210.944 4.608-289.587 81.28-78.695 210.944-76.647 289.639 4.608 78.643 81.203 76.57 210.867-4.608 289.587zM385.792 98.944c-34.56-35.661-80.921-55.296-130.611-55.296-47.463 0-92.391 18.202-126.464 51.251-34.893 33.792-54.528 79.104-55.296 127.693-0.743 48.563 17.408 94.541 51.225 129.382 34.534 35.661 80.871 55.322 130.585 55.322 47.462 0 92.39-18.202 126.49-51.251 34.841-33.766 54.502-79.078 55.296-127.641 0.768-48.615-17.433-94.541-51.226-129.459zM251.085 96.103c39.040 0 71.833 12.647 81.638 29.901h-163.303c9.805-17.255 42.599-29.901 81.664-29.901zM204.774 263.962c0-18.451-14.958-33.408-33.408-33.408s-33.408 14.958-33.408 33.408c0 18.451 14.958 33.408 33.408 33.408s33.408-14.957 33.408-33.408zM372.454 263.962c0-18.451-14.957-33.408-33.408-33.408s-33.408 14.958-33.408 33.408c0 18.451 14.957 33.408 33.408 33.408s33.408-14.957 33.408-33.408z" />
<glyph unicode="&#xe656;" glyph-name="uniE656" d="M467.226 373.376l-52.915 52.915-152.192-152.064-151.475 151.552-53.017-52.992 151.577-151.527-150.375-150.349 52.915-53.017 150.374 150.451 151.065-150.938 52.864 52.889-150.912 150.989z" />
<glyph unicode="&#xe657;" glyph-name="uniE657" d="M465.357 343.987l-52.454 52.455-212.121-212.071-96.615 83.353-48.41-56.141 149.581-129.024 8.73 10.137z" />
<glyph unicode="&#xe658;" glyph-name="uniE658" d="M418.355 238.848l-289.971-204.851v409.625z" />
<glyph unicode="&#xe659;" glyph-name="uniE659" d="M52.633 431.872h152.167v-409.6h-152.167v409.6zM311.783 431.872h152.167v-409.6h-152.167v409.6z" />
<glyph unicode="&#xe65a;" glyph-name="uniE65A" d="M465.255 280.857l-204.8-248.96-204.8 248.96h204.8zM55.654 409.677h409.6v-67.584h-409.6v67.584z" />
<glyph unicode="&#xe65b;" glyph-name="uniE65B" d="M462.464 178.867l-204.8 249.011-204.8-249.011h204.8zM52.864 117.632h409.6v-67.558h-409.6v67.558z" />
<glyph unicode="&#xe65c;" glyph-name="uniE65C" d="M173.056 287.36l28.826-16.025v82.765l181.197-100.736v140.621h79.539v-346.573h-79.539v140.493l-181.197-100.659v82.765l-148.864-82.765v266.854z" />
<glyph unicode="&#xe65d;" glyph-name="uniE65D" d="M347.469 286.438l-28.8-16.025v82.739l-181.197-100.711v140.621h-79.539v-346.624h79.539v140.57l181.197-100.659v82.714l28.8-16.051 120.064-66.662v266.803z" />
<glyph unicode="&#xe65e;" glyph-name="uniE65E" d="M330.112 227.763l-237.465-195.251v390.553zM417.357 432.589v-409.6h-87.245v409.6z" />
<glyph unicode="&#xe65f;" glyph-name="uniE65F" d="M182.221 217.805l237.389-195.277v390.579zM94.899 422.63v-409.575h87.322v409.575z" />
<glyph unicode="&#xe660;" glyph-name="uniE660" d="M186.189 433.587h-136.115v-145.792l49.305 52.813 78.951-84.582 34.202 36.633-78.925 84.583zM334.797 433.587l52.608-56.346-78.95-84.582 34.202-36.634 78.951 84.583 49.305-52.813v145.792zM178.329 201.575l-78.951-84.633-49.306 52.889v-145.843h136.115l-52.583 56.371 78.925 84.582zM342.656 201.575l-34.202-36.633 78.95-84.582-52.608-56.371h136.115v145.843l-49.305-52.889z" />
<glyph unicode="&#xe661;" glyph-name="uniE661" d="M197.811 408.832h253.261v-53.222h-253.261v53.222zM160.537 382.233c0-27.018-21.903-48.921-48.922-48.921s-48.922 21.903-48.922 48.922c0 27.018 21.903 48.921 48.922 48.921s48.922-21.903 48.922-48.921zM197.811 252.928h253.261v-53.197h-253.261v53.197zM160.537 226.329c0-27.019-21.903-48.921-48.922-48.921s-48.922 21.903-48.922 48.922c0 27.018 21.903 48.922 48.922 48.922s48.922-21.903 48.922-48.922zM197.811 97.101h253.261v-53.248h-253.261v53.248zM160.537 70.451c0-27.019-21.903-48.921-48.922-48.921s-48.922 21.903-48.922 48.921c0 27.019 21.903 48.921 48.922 48.921s48.922-21.903 48.922-48.921z" />
<glyph unicode="&#xe662;" glyph-name="uniE662" d="M197.786 420.096h225.945v-47.462h-225.946v47.462zM197.786 258.279h225.945v-47.488h-225.946v47.488zM197.786 96.461h225.945v-47.462h-225.946v47.462zM109.056 346.061h22.707v89.702h-45.517v-23.706h22.809zM86.246 276.327h45.517v-22.349h-45.517v-68.813h68.838v23.757h-45.594v21.376h45.594v69.76h-68.838zM86.246 140.595v-22.784h45.517v-23.040h-45.517v-22.759h45.517v-23.040h-45.517v-22.81h68.838v114.432h-23.322z" />
<glyph unicode="&#xe663;" glyph-name="uniE663" d="M197.786 420.096h225.945v-47.462h-225.946v47.462zM197.786 258.279h225.945v-47.488h-225.946v47.488zM197.786 96.461h225.945v-47.462h-225.946v47.462zM109.056 346.061h22.707v89.702h-45.517v-23.706h22.809zM86.246 276.327h45.517v-22.349h-45.517v-68.813h68.838v23.757h-45.594v21.376h45.594v69.76h-68.838zM86.246 140.595v-22.784h45.517v-23.040h-45.517v-22.759h45.517v-23.040h-45.517v-22.81h68.838v114.432h-23.322z" />
<glyph unicode="&#xe664;" glyph-name="uniE664" d="M155.059 20.659l203.392 206.233-206.208 203.341z" />
<glyph unicode="&#xe665;" glyph-name="uniE665" d="M365.209 17.459l-203.417 206.233 206.208 203.341z" />
<glyph unicode="&#xe666;" glyph-name="uniE666" d="M448.409 323.533l-204.8-204.774-204.8 204.774z" />
<glyph unicode="&#xe667;" glyph-name="uniE667" d="M469.197 133.146l-204.8 204.8-204.774-204.8z" />
<glyph unicode="&#xe668;" glyph-name="uniE668" d="M105.6 367.795c-35.661 0.307-50.407-17.331-32.768-39.194l36.301-44.953c17.51-21.863 46.387-57.677 64-79.514l23.424-29.056v-141.542c0-10.035 8.141-18.176 18.176-18.176h57.421c10.061 0 18.227 8.141 18.227 18.176v127.923l-174.797 206.208-9.984 0.128zM381.671 365.312l-190.106 1.689 129.255-152.55c17.639 21.222 40.755 48.743 55.782 66.765l37.069 44.442c18.022 21.453 3.61 39.321-32 39.654zM347.094 117.478l-245.364 289.497 21.249 18.010 245.364-289.497-21.249-18.010z" />
<glyph unicode="&#xe669;" glyph-name="uniE669" d="M427.059 438.81l-320.896 2.867c-41.344 0.384-58.573-20.096-38.041-45.491l42.163-52.275c20.352-25.369 53.913-67.046 74.368-92.39l27.213-33.767v-164.48c0-11.725 9.498-21.145 21.12-21.145h66.791c11.623 0 21.043 9.421 21.043 21.145v167.808l24.269 29.030c20.864 25.037 55.091 65.971 76.058 91.033l43.059 51.635c20.992 24.883 4.199 45.671-37.145 46.029z" />
<glyph unicode="&#xe66a;" glyph-name="uniE66A" d="M433.562 46.003l-23.834 28.621v18.355h-15.283l-24.832 29.875h39.577v32.179h-66.329l-24.423 29.337h90.752v32.205h-117.478l-24.448 29.338h142.464v32.205h-169.165l-23.987 28.774h193.664v32.205h-220.391l-24.832 29.875h244.71v32.179h-271.514l-28.16 33.895-24.73-20.583 17.049-20.505v-24.986h20.787l24.858-29.875h-45.107v-32.205h71.859l23.936-28.774h-96.333v-32.205h123.085l24.423-29.337h-148.045v-32.205h174.797l24.397-29.337h-199.194v-32.179h225.971l24.807-29.875h-250.24v-32.179h277.017l29.414-35.353z" />
<glyph unicode="&#xe66b;" glyph-name="uniE66B" d="M73.37 436.327h368.538v-38.579h-368.538v38.579zM221.773 362.112h221.875v-38.579h-221.875v38.579zM74.215 287.923h368.512v-38.579h-368.512v38.579zM222.643 213.709h221.824v-38.605h-221.824v38.605zM73.37 139.52h368.538v-38.579h-368.538v38.579zM221.773 65.305h221.875v-38.579h-221.875v38.579z" />
<glyph unicode="&#xe66c;" glyph-name="uniE66C" d="M65.049 436.121h369.869v-38.733h-369.869v38.733zM65.715 361.421h369.894v-38.733h-369.894v38.733zM65.049 288.025h369.869v-38.707h-369.869v38.707zM64.409 213.99h369.894v-38.707h-369.894v38.707zM64.409 139.955h369.894v-38.733h-369.894v38.733zM65.049 65.255h369.869v-38.733h-369.869v38.733z" />
<glyph unicode="&#xe66d;" glyph-name="uniE66D" d="M59.673 436.915h371.072v-38.861h-371.072v38.861zM59.008 287.053h371.712v-38.195h-371.712v38.195zM59.673 138.496h371.712v-37.529h-371.712v37.529zM133.299 212.787h224.461v-36.889h-224.461v36.889zM134.605 64.231h222.489v-36.889h-222.489v36.889zM133.299 361.984h223.155v-38.861h-223.155v38.861z" />
<glyph unicode="&#xe66e;" glyph-name="uniE66E" d="M342.477 188.851c35.738 49.741 35.968 118.887-3.712 169.395-48.205 61.261-136.857 71.808-198.119 23.629-61.209-48.179-71.782-136.832-23.603-198.041 40.32-51.2 108.851-66.841 166.067-42.496l109.312-138.854 59.699 46.976-109.645 139.392zM279.501 205.44c-36.198-28.467-88.627-22.17-117.12 13.978-28.518 36.224-22.246 88.678 13.952 117.171 36.275 28.467 88.653 22.195 117.171-14.003 28.442-36.198 22.221-88.653-14.003-117.145z" />
<glyph unicode="&#xe66f;" glyph-name="uniE66F" d="M54.4 387.481v-340.327h409.6v340.327h-409.6zM429.773 114.125h-20.787l-90.88 148.275-81.613-122.445-55.219 57.651-64.359-83.481h-28.263v205.619h341.12v-205.619z" />
<glyph unicode="&#xe670;" glyph-name="uniE670" d="M326.375 438.144c-65.075-0.026-117.76-52.736-117.76-117.786 0-18.714 4.506-36.403 12.262-52.122l-153.498-153.549 7.424-16.051 142.157 142.157 9.113-9.063-145.459-145.459 26.983-57.754 36.429 36.531-6.375 34.022 37.888-2.483-7.27 33.101 41.728 1.331-5.12 35.328 37.401-2.995-7.27 33.127 35.968-4.429 17.050 17.050c12.032-4.147 24.909-6.477 38.298-6.502 64.998 0 117.734 52.762 117.734 117.76 0.051 65.050-52.634 117.786-117.683 117.786zM383.385 357.99c-10.24-10.189-26.803-10.214-37.017 0.025-10.24 10.291-10.24 26.829 0 37.069 10.214 10.24 26.854 10.24 37.017 0.026 10.291-10.291 10.291-26.803 0-37.12z" />
<glyph unicode="&#xe671;" glyph-name="uniE671" d="M151.014 283.111l0.589-0.589 1.178 1.127 137.113 137.139h134.835l-205.619-205.696 48.282-48.358 155.597-155.546h-134.887l-204.57 204.519z" />
<glyph unicode="&#xe672;" glyph-name="uniE672" d="M313.523 320.461l-0.563-0.64 1.101-1.152 137.139-137.088v-134.887l-205.696 205.645-48.384-48.307-155.52-155.546v134.835l204.544 204.57z" />
<glyph unicode="&#xe673;" glyph-name="uniE673" d="M335.13 140.544l-0.589 0.64 1.101 1.178 137.165 137.113v134.835l-205.696-205.645-48.41 48.307-155.494 155.571v-134.861l204.519-204.595z" />
<glyph unicode="&#xe674;" glyph-name="uniE674" d="M363.725 283.111l-0.691-0.589-138.24 138.266h-134.861l205.671-205.696-203.879-203.904h134.835l204.57 204.519z" />
<glyph unicode="&#xe675;" glyph-name="uniE675" d="M62.797 287.207h409.6v-111.232h-409.6v111.232z" />
<glyph unicode="&#xe676;" glyph-name="uniE676" d="M472.166 286.643h-145.971l-0.64 150.553-111.104-0.486 0.666-150.067h-152.089v-111.104h152.499l0.64-147.942 111.104 0.486-0.615 147.456h145.511z" />
<glyph unicode="&#xe677;" glyph-name="uniE677" d="M390.605 209.178c-1.203-24.192-9.241-48.358-24.704-69.299-41.882-56.601-121.959-68.582-178.611-26.649-56.601 41.831-68.531 121.959-26.675 178.534 33.357 45.107 90.88 61.287 141.645 45.031l-38.4-53.197 181.197-10.675-67.226 168.601-41.293-57.241c-76.774 33.382-169.319 10.957-221.209-59.136-60.263-81.536-43.008-196.915 38.477-257.203 81.587-60.365 196.915-43.059 257.28 38.425 22.221 30.080 33.817 64.666 35.687 99.43l-56.166 3.379z" />
<glyph unicode="&#xe678;" glyph-name="uniE678" d="M182.861 302.848l59.417 59.417v-214.093h31.898v214.093l59.469-59.417h43.418l0.921 0.896-119.731 119.68-119.706-119.68 0.845-0.896zM413.543 149.223v-67.712h-308.557v67.712h-31.13v-135.399h370.406v135.399z" />
<glyph unicode="&#xe679;" glyph-name="uniE679" d="M192.231 234.343l-67.661-72.090-72.090 72.653v-208h206.31l-65.792 66.355 70.042 74.649zM461.261 434.893l-203.648-0.794 71.45-70.297-70.451-66.509 65.357-69.043 72.858 68.762 65.255-64.051z" />
<glyph unicode="&#xe67a;" glyph-name="uniE67A" d="M333.543 316.8h27.469v-25.6h-27.469v25.6zM361.037 342.4h27.443v-25.574h-27.443v25.574zM388.48 368h27.443v-25.6h-27.443v25.6zM415.923 342.4h27.495v-25.574h-27.495v25.574zM415.923 393.6h27.495v-25.626h-27.495v25.626zM443.418 419.2h27.469v-25.6h-27.469v25.6zM361.037 393.6h27.443v-25.626h-27.443v25.626zM333.543 419.2h27.469v-25.6h-27.469v25.6zM443.418 316.8h27.469v-25.6h-27.469v25.6zM428.185 250.624v-23.194h-79.385v34.816c-7.091 3.738-13.849 8.141-20.070 13.21v-48.026h-68.377v68.25h48.538c-16.128 20.685-25.779 46.566-25.779 74.726 0 13.082 2.151 25.677 5.965 37.504h-227.763v-386.739h385.587v234.675c-6.067-2.202-12.288-4.045-18.714-5.222zM172.032 295.68h68.224v-68.275h-68.224v68.275zM151.911 39.885h-71.859v75.52h71.859v-75.52zM151.911 135.45h-71.859v71.834h71.859v-71.834zM151.911 227.405h-71.859v68.275h71.859v-68.275zM240.333 39.885h-68.301v75.52h68.301v-75.52zM240.333 135.45h-68.301v71.834h68.301v-71.834zM328.729 39.885h-68.301v75.52h68.301v-75.52zM328.729 135.45h-68.301v71.834h68.301v-71.834zM428.185 39.885h-79.385v75.52h78.976v20.045h-78.976v71.834h79.385v-167.399z" />
<glyph unicode="&#xe67b;" glyph-name="uniE67B" d="M461.798 256.231v-51.046l-132.352-97.587v53.069l86.63 69.632v0.845l-86.63 69.581v53.581l132.352-98.074zM52.224 205.645v51.047l132.301 97.613v-53.145l-86.579-69.581v-0.845l86.605-69.581v-53.555l-132.327 98.048z" />
<glyph unicode="&#xe67c;" glyph-name="uniE67C" d="M50.688 26.649l397.798 409.6-0.154-95.309 0.154-0.026 0.205-168.32h-0.205v-143.591z" />
<glyph unicode="&#xe67d;" glyph-name="uniE67D" d="M214.246 306.483l5.939 5.939h73.037l5.965-5.939-0.256-0.256 162.56-162.637h-84.429l-120.371 120.371-120.346-120.371h-84.454l162.585 162.637z" />
<glyph unicode="&#xe67e;" glyph-name="uniE67E" d="M371.098 224.41l-204.749 204.851v-135.885h-0.154v-137.881h0.154v-135.833z" />
<glyph unicode="&#xe67f;" glyph-name="uniE67F" d="M370.739 423.783c-145.434 58.112-255.257-58.855-300.493-126.080-45.235-67.097 23.296-68.454 23.296-68.454h80.051c14.925 0.973 8.781-17.408-2.176-24.55-7.475-4.839-70.451-45.901-70.451-45.901-55.27-34.893-19.123-93.005-19.123-93.005 29.44-67.558 190.029-36.224 190.029-36.224 176.077 54.784 183.808 175.462 189.619 210.995 6.221 38.016 12.007 142.080-90.752 183.219zM181.401 316.979c-8.294-3.865-5.351-5.811-11.161-11.162-5.888-5.351-13.107-6.323-18.406-0.486-5.351 5.837 0.435 8.243-2.432 11.161-2.918 2.867-7.321-6.349-13.568 0.921-6.375 7.296 0 7.296 1.459 7.783 0 0-3.43 24.704 7.296 26.624 10.624 1.945 11.085 3.456 16.435 2.457 5.325-0.922 4.839 3.353 12.109-0.512 7.219-3.866 5.811-2.381 10.163-12.57 4.403-10.163 6.298-20.352-1.894-24.217zM158.106 48.998c-24.627 0-44.647 19.942-44.647 44.544 0 24.627 20.019 44.647 44.647 44.647s44.647-20.019 44.647-44.647c-0.077-24.601-19.994-44.544-44.647-44.544zM266.726 373.401c26.163 24.243 41.037 29.209 47.232 23.014 6.144-6.247 9.293-12.442 16.128-14.31 6.81-1.843 31.642-14.311 23.603-24.218-8.064-9.959 4.403-21.734-14.873-30.464-19.303-8.678-17.408-16.179-36.070-16.768-18.586-0.589-28.57 13.696-24.166 19.865 0 0-37.965 18.688-11.853 42.88zM337.075 101.146c-11.443-5.401-7.399-8.115-15.488-15.539-8.115-7.373-18.227-8.806-25.677-0.666-7.424 8.089 0.666 11.443-3.379 15.539-4.019 4.045-10.137-8.781-18.867 1.331-8.806 10.137 0 10.137 2.022 10.803 0 0-4.762 34.483 10.112 37.145 14.899 2.714 15.539 4.762 22.989 3.405 7.373-1.382 6.784 4.762 16.921-0.666 10.087-5.401 8.115-3.379 14.183-17.587 5.99-14.157 8.729-28.339-2.816-33.767zM431.437 228.352c-4.48-6.093-9.472-9.881-9.882-15.463-0.333-5.581-6.861-27.213-17.408-23.373-10.496 3.865-18.739-8.243-30.285 4.327-11.623 12.57-17.971 9.498-22.093 23.424-4.070 14.003 6.938 24.755 13.312 22.887 0 0 9.651 32.922 36.531 18.663 26.855-14.234 34.227-24.346 29.824-30.464z" />
<glyph unicode="&#xe680;" glyph-name="uniE680" d="M255.616 224.333l65.383 199.629-52.045-36.198-44.032-100.941 1.741-46.745-4.787-14.439-5.863 0.307c2.355 13.542 2.355 31.795-8.986 48-10.803 15.488-29.312 25.472-55.040 29.389-44.851 6.912-75.443-14.183-88.090-34.355-10.88-17.536-9.498-40.090 0.691-54.682 4.864-7.014 36.531-18.663 38.63-18.893l26.393 0.64 81.92-2.202-27.059-80.179-9.063-24.423c-0.358-1.382-0.614-33.203 4.352-40.346 10.137-14.515 29.671-22.041 49.894-17.869 23.245 4.813 54.375 25.165 63.488 69.735 5.171 25.472 2.355 46.259-8.525 61.798-11.034 15.872-27.597 22.272-41.037 24.883l1.817 5.76 14.362-0.435 43.623-18.637 110.439 5.581 52.070 36.173-210.279 8.448zM184.32 228.275h-26.599l-9.702 0.384-0.666-0.358-43.213 0.051c-16.077 1.869-20.915 11.571-13.287 23.834 7.45 12.007 26.727 24.423 56.32 19.815 16.793-2.611 28.237-8.038 33.843-16.205 6.067-8.601 5.171-19.763 3.303-27.52zM258.663 144.435c5.709-8.141 6.81-20.736 3.379-37.401-5.939-29.337-24.294-43.136-38.144-46.003-7.552-1.536-13.977 0-16.717 3.993-2.483 3.481-2.791 9.447-1.536 15.104l14.976 40.755 1.561 1.255 9.191 27.981 2.56 7.014c7.859-1.101 18.662-4.070 24.729-12.697z" />
<glyph unicode="&#xe681;" glyph-name="uniE681" d="M95.975 395.981h307.84v-39.757h-307.84v39.757zM323.481 78.259h-42.087v231.117h-63.078v-231.117h-42.010v231.117h-54.656v-277.888h256.486v277.888h-54.656zM179.405 441.113h141.030v-36.352h-141.030v36.352z" />
<glyph unicode="&#xe682;" glyph-name="uniE682" d="M71.040 436.454h368.512v-38.579h-368.512v38.579zM69.299 362.24h221.824v-38.579h-221.824v38.579zM70.195 288.051h368.486v-38.579h-368.486v38.579zM68.454 213.837h221.875v-38.553h-221.875v38.553zM71.040 139.648h368.512v-38.605h-368.512v38.605zM69.299 65.433h221.824v-38.579h-221.824v38.579z" />
<glyph unicode="&#xe683;" glyph-name="uniE683" d="M358.682 437.939l-186.266-1.536 31.565-61.85 0.768-93.082-31.053-0.307-30.489-62.285 93.133 0.768 0.205-31.053 33.049-160.256 29.031 160.793-0.281 30.976 93.159 0.819-31.591 61.773-31.027-0.205-0.793 93.082z" />
<glyph unicode="&#xe684;" glyph-name="uniE684" d="M456.141 126.413l-1.562 186.291-61.849-31.59-93.133-0.819-0.281 31.053-62.285 30.489 0.793-93.133-31.053-0.231-160.231-33.127 160.793-28.979 31.001 0.281-0.41 48.793 1.229-141.901 61.747 31.565-0.205 31.053 93.082 0.819z" />
<glyph unicode="&#xe685;" glyph-name="uniE685" horiz-adv-x="522" d="M489.531 224c0-120.942-102.341-218.984-228.584-218.984s-228.584 98.043-228.584 218.984c0 120.942 102.341 218.984 228.584 218.984s228.584-98.043 228.584-218.984zM260.947 471.213c-139.339 0-252.298-110.677-252.298-247.213 0-136.528 112.96-247.213 252.298-247.213s252.298 110.694 252.298 247.213c0 136.536-112.96 247.213-252.298 247.213zM260.947 5.016c-123.442 0-223.499 98.041-223.499 218.984 0 120.951 100.056 218.993 223.499 218.993s223.499-98.033 223.499-218.993c0-120.943-100.065-218.984-223.499-218.984zM337.626 258.673l-105.288 72.978c-7.196 4.982-15.611 7.507-24.035 7.507-6.702 0-13.422-1.591-19.572-4.817-13.907-7.282-22.625-21.682-22.625-37.38v-145.92c0-15.706 8.718-30.098 22.625-37.38 6.149-3.226 12.861-4.817 19.572-4.817 8.433 0 16.839 2.517 24.035 7.498l105.288 72.986c11.373 7.87 18.162 20.817 18.162 34.664s-6.781 26.811-18.162 34.681z" />
<glyph unicode="&#xe686;" glyph-name="uniE686" d="M492.789 223.99c0-130.769-106.010-236.779-236.779-236.779s-236.78 106.010-236.78 236.779c0 130.769 106.010 236.779 236.78 236.779s236.779-106.010 236.779-236.779zM236.286 356.127l126.027-134.011-48.373-45.491-126.028 134.011 48.374 45.492zM177.871 137.384l109.665 105.526 46.043-47.849-109.666-105.526-46.042 47.849z" />
<glyph unicode="&#xe687;" glyph-name="uniE687" d="M492.789 223.99c0-130.769-106.010-236.779-236.779-236.779s-236.78 106.010-236.78 236.779c0 130.769 106.010 236.779 236.78 236.779s236.779-106.010 236.779-236.779zM324.082 310.635l-126.046-133.993-48.381 45.512 126.046 133.993 48.381-45.512zM288.11 89.547l-109.65 105.541 46.049 47.842 109.65-105.541-46.050-47.842z" />
<glyph unicode="&#xe688;" glyph-name="uniE688" horiz-adv-x="326" d="M202.588 221.376l100.838-71.216v142.432zM239.042 458.38v-78.177c-76.854-16.763-134.083-80.237-134.083-156.202 0-75.921 57.228-139.418 134.083-156.18v-78.177c-123.067 17.782-217.204 115.976-217.204 234.38 0.021 118.426 94.159 216.554 217.204 234.358z" />
<glyph unicode="&#xe689;" glyph-name="uniE689" horiz-adv-x="326" d="M122.698 221.354l-100.838-71.216v142.454zM86.244 458.358v-78.177c76.833-16.763 134.083-80.216 134.083-156.202 0-75.921-57.25-139.417-134.083-156.137v-78.177c123.066 17.783 217.204 115.932 217.204 234.336-0.022 118.447-94.159 216.576-217.204 234.357z" />
<glyph unicode="&#xe68a;" glyph-name="uniE68A" horiz-adv-x="522" d="M243.988 141.043c0-11.712-9.49-21.219-21.22-21.219v0c-11.713 0-21.22 9.498-21.22 21.219v159.838c0 11.713 9.499 21.22 21.22 21.22v0c11.721 0 21.22-9.499 21.22-21.22v-159.838zM320.371 141.043c0-11.712-9.498-21.219-21.219-21.219v0c-11.721 0-21.219 9.498-21.219 21.219v159.838c0 11.713 9.49 21.22 21.219 21.22v0c11.712 0 21.219-9.499 21.219-21.22v-159.838zM489.837 224.086c0-121.007-102.422-219.103-228.765-219.103s-228.766 98.096-228.766 219.103c0 121.007 102.422 219.103 228.766 219.103s228.765-98.096 228.765-219.103zM243.516 143.575c0-11.884-9.627-21.503-21.52-21.503v0c-11.875 0-21.503 9.619-21.503 21.503v162.052c0 11.867 9.627 21.503 21.503 21.503v0c11.893 0 21.52-9.636 21.52-21.503v-162.052zM320.954 143.575c0-11.884-9.636-21.503-21.52-21.503v0c-11.875 0-21.503 9.619-21.503 21.503v162.052c0 11.867 9.627 21.503 21.503 21.503v0c11.884 0 21.52-9.636 21.52-21.503v-162.052zM261.063 471.411c-139.451 0-252.49-110.766-252.49-247.411 0-136.637 113.040-247.411 252.49-247.411s252.49 110.774 252.49 247.411c0 136.645-113.040 247.411-252.49 247.411zM261.063 4.827c-123.525 0-223.677 98.127-223.677 219.173 0 121.054 100.152 219.173 223.677 219.173s223.677-98.118 223.677-219.173c0-121.046-100.152-219.173-223.677-219.173z" />
<glyph unicode="&#xe68b;" glyph-name="uniE68B" horiz-adv-x="269" d="M0 224.205l255.345-256.205 13.64 16.015-240.19 240.19 240.19 240.292-14.91 15.504z" />
<glyph unicode="&#xe68c;" glyph-name="uniE68C" horiz-adv-x="526" d="M423.942 144.541c0-22.541-18.456-40.983-40.983-40.983h-220.762c-22.527 0-40.983 18.442-40.983 40.983v107.731c0 22.541 18.456 40.983 40.983 40.983h220.762c22.527 0 40.983-18.442 40.983-40.983v-107.731z" />
<glyph unicode="&#xe68d;" glyph-name="uniE68D" horiz-adv-x="526" d="M187.975 189.348c22.089 19.030 50.828 30.56 82.28 30.56 31.552 0 60.379-11.608 82.505-30.759l42.518 42.523c-33.039 29.976-76.894 48.239-125.022 48.239-48.019 0-91.79-18.19-124.803-48.046l42.523-42.518z" />
<glyph unicode="&#xe68e;" glyph-name="uniE68E" horiz-adv-x="526" d="M256.584 338.28l-42.679-42.685c16.249-21.238 25.925-47.774 25.925-76.575 0-31.447-11.541-60.186-30.571-82.274l42.529-42.529c29.85 33.019 48.040 76.784 48.040 124.808 0 45.378-16.253 86.957-43.243 119.255z" />
<glyph unicode="&#xe68f;" glyph-name="uniE68F" horiz-adv-x="526" d="M294.896 157.399c-19.151 22.12-30.764 50.947-30.764 82.499 0 28.91 9.75 55.535 26.108 76.81l-42.674 42.67c-27.095-32.334-43.431-73.992-43.431-119.484 0-48.129 18.263-91.983 48.233-125.028l42.529 42.534z" />
<glyph unicode="&#xe690;" glyph-name="uniE690" horiz-adv-x="526" d="M336.625 265.114c-21.274-16.358-47.904-26.103-76.815-26.103-28.806 0-55.342 9.672-76.581 25.92l-42.685-42.68c32.304-26.99 73.876-43.243 119.265-43.243 45.488 0 87.149 16.337 119.484 43.437l-42.669 42.669z" />
<glyph unicode="&#xe691;" glyph-name="uniE691" horiz-adv-x="526" d="M351.401 215.837h-83.25v83.291h-21.27v-83.291h-83.4v-21.366h83.4v-83.291h21.27v83.291h83.25z" />
<glyph unicode="&#xe692;" glyph-name="uniE692" horiz-adv-x="526" d="M410.281 102.506c0-22.541-18.456-40.983-40.983-40.983h-220.762c-22.527 0-40.983 18.442-40.983 40.983v222.073c0 22.541 18.456 40.983 40.983 40.983h220.762c22.527 0 40.983-18.442 40.983-40.983v-222.073z" />
<glyph unicode="&#xe693;" glyph-name="uniE693" horiz-adv-x="526" d="M169.547 220.346h187.866v-21.161h-187.866v21.161z" />
<glyph unicode="&#xe694;" glyph-name="uniE694" horiz-adv-x="526" d="M414.829 98.736c0-22.541-18.456-40.983-40.983-40.983h-220.762c-22.527 0-40.983 18.442-40.983 40.983v222.073c0 22.541 18.456 40.983 40.983 40.983h220.762c22.527 0 40.983-18.442 40.983-40.983v-222.073z" />
<glyph unicode="&#xe695;" glyph-name="uniE695" horiz-adv-x="526" d="M331.087 141.754v67.827l-67.417 45.3-70.204-45.3v-67.827zM169.833 230.127v-20.683l93.782 64.48 91.050-62.649v20.655l-91.187 62.608z" />
<glyph unicode="&#xe696;" glyph-name="uniE696" horiz-adv-x="526" d="M456.003 211.275c0-104.171-84.447-188.617-188.617-188.617s-188.617 84.447-188.617 188.617c0 104.171 84.447 188.617 188.617 188.617s188.617-84.447 188.617-188.617z" />
<glyph unicode="&#xe697;" glyph-name="uniE697" horiz-adv-x="526" d="M362.998 158.464l-85.17 85.187-85.17-85.187z" />
<glyph unicode="&#xe698;" glyph-name="uniE698" horiz-adv-x="526" d="M220.817 131.875l85.187 85.17-85.187 85.154z" />
<glyph unicode="&#xe699;" glyph-name="uniE699" horiz-adv-x="526" d="M294.93 293.757l-85.204-85.154 85.204-85.17z" />
<glyph unicode="&#xe69a;" glyph-name="uniE69A" horiz-adv-x="526" d="M169.293 250.69l85.17-85.17 85.17 85.17z" />
<glyph unicode="&#xe69b;" glyph-name="uniE69B" horiz-adv-x="269" d="M14.909 480l-14.909-15.503 240.21-240.292-240.21-240.19 13.639-16.015 255.345 256.205z" />
<glyph unicode="&#xe69c;" glyph-name="uniE69C" horiz-adv-x="513" d="M40.653 89.925l-40.653-121.925c0 0 124.177 42.871 121.924 40.653 0.034 45.159-38.297 81.272-81.272 81.272zM368.435 418.457l-300.817-300.647c38.809 0 82.056-43.315 82.056-81.988-2.253 2.321 303.002 303.070 300.681 300.714 0.171 38.742-38.57 81.92-81.92 81.92zM501.487 442.385c-24.576 24.61-3.447 3.413-27.067 27.067-23.688 23.654-54.238 0-54.238 0s-24.883-24.815-27.102-27.17c38.4 0.102 81.339-42.906 81.339-81.203l27.067 27.102c-0.034 0.034 24.576 29.627 0 54.203z" />
<glyph unicode="&#xe69d;" glyph-name="uniE69D" horiz-adv-x="410" d="M409.411 430.988h-113.137v49.012h-183.105v-48.996h-113.169v-21.648h18.405l26.954-441.356 21.554 1.354-26.859 439.986h323.196l-26.907-439.971 21.585-1.354 26.938 441.325h24.529l0.015 21.648zM131.732 461.454h145.995v-30.497h-145.995v30.497zM117.263 366.091h21.601v-359.943h-21.601v359.943zM193.921 366.091h21.585v-359.943h-21.585v359.943zM270.548 366.091h21.648v-359.943h-21.648v359.943z" />
<glyph unicode="&#xe69e;" glyph-name="uniE69E" d="M512.036 378.871l-101.164 101.129-154.853-154.889-154.889 154.853-101.129-101.093 154.889-154.889-154.889-154.889 101.129-101.093 154.889 154.853 154.853-154.853 101.164 101.093-154.889 154.889z" />
<glyph unicode="&#xe69f;" glyph-name="uniE69F" d="M512 288h-192v192h-128v-192h-192v-128h192v-192h128v192h192z" />
<glyph unicode="&#xe6a0;" glyph-name="uniE6A0" horiz-adv-x="678" d="M351.204 2.69l-307.669 435.429h615.339z" />
<glyph unicode="&#xe6a1;" glyph-name="uniE6A1" d="M95.126 255.659h32.874v0.341h10.666c11.798 0 21.334 8.363 21.334 18.666v45.334h45.334c10.326 0 18.666 9.558 18.666 21.334v53.334c0 11.798-8.341 21.333-18.666 21.333h-45.334v45.334c0 10.326-9.536 18.666-21.334 18.666h-53.334c-11.797 0-21.334-8.341-21.334-18.666v-45.334h-45.334c-10.325 0-18.666-9.536-18.666-21.333v-53.334c0-11.776 8.341-21.334 18.666-21.334h45.334v-45.334c0-10.304 9.536-18.666 21.334-18.666h9.792v-0.341zM469.334 480h-277.334v-32h288v-448h-64.875v383.104h-95.125v-383.104h-32.875v288h-95.125v-288h-64v224h-32.874v-213.333c0-23.552 19.093-42.666 42.666-42.666h331.541c23.552 0 42.666 19.115 42.666 42.666v426.666c0 23.574-19.115 42.666-42.666 42.666z" />
<glyph unicode="&#xe6a2;" glyph-name="uniE6A2" d="M320 384l-139.456-288-116.544 96v-160h384zM0 480v-512h512v512h-512zM480 0h-448v448h448v-448z" />
<glyph unicode="&#xe6a3;" glyph-name="uniE6A3" horiz-adv-x="413" d="M374.935 224l-340.992-240.941v481.882z" />
<glyph unicode="&#xe6a4;" glyph-name="uniE6A4" d="M442.666 480h-373.334c-11.776 0-21.334-10.197-21.334-22.762v-466.496c0-12.565 9.557-22.741 21.334-22.741h373.334c11.798 0 21.334 10.197 21.334 22.741v466.496c0 12.565-9.536 22.762-21.334 22.762zM432 0h-64v320h-96v-320h-32v256h-96v-256h-64v352h352v-352z" />
<glyph unicode="&#xe6a5;" glyph-name="uniE6A5" d="M0 480v-512h512v512h-512zM31.168 448h209.238c-109.525-6.933-197.781-91.648-209.238-199.424v199.424zM480.086 0.768h-448.918v200.171c11.947-112.49 107.499-200.171 223.616-200.171 124.266 0 225.003 100.288 225.003 223.978 0 118.848-93.056 215.829-210.582 223.254h210.88v-447.232z" />
<glyph unicode="&#xe6a6;" glyph-name="uniE6A6" d="M0 480v-512h512v512h-512zM480 0h-64v192h-64v-192h-32v256h-64v-256h-32v320h-64v-320h-32v416h-64v-416h-32v448h448v-448z" />
<glyph unicode="&#xe6a7;" glyph-name="uniE6A7" d="M16 464v-480h480v480h-480zM48 432h192v-192h-192v192zM48 16v192h192v-192h-192zM464 16h-192v192h192v-192zM464 240h-192v192h192v-192z" />
<glyph unicode="&#xe6a8;" glyph-name="uniE6A8" d="M0 480v-512h512v512h-512zM480.106 0.789h-222.166l222.059 222.805-224.384 223.659-223.616-224.363 222.805-222.101h-223.659v447.211h448.96v-447.211z" />
<glyph unicode="&#xe6a9;" glyph-name="uniE6A9" d="M421.334 480h-330.666c-23.552 0-42.666-19.115-42.666-42.666v-426.666c0-23.552 19.115-42.666 42.666-42.666h330.666c23.552 0 42.666 19.115 42.666 42.666v426.666c0 23.552-19.115 42.666-42.666 42.666zM432 0h-352v448h352v-448zM112 320h32v-32h-32v32zM112 192h32v-32h-32v32zM176 256h32v-32h-32v32zM144 352h64v-32h-64v32zM368 128v32h-64v160h64v32h-96v-224h32zM144 160h64v-32h-64v32zM208 320h32v-64h-32v64zM368 320h32v-160h-32v160zM208 224h32v-64h-32v64z" />
<glyph unicode="&#xe6aa;" glyph-name="uniE6AA" d="M421.334 480h-330.666c-23.552 0-42.666-19.115-42.666-42.666v-426.666c0-23.552 19.115-42.666 42.666-42.666h330.666c23.552 0 42.666 19.115 42.666 42.666v426.666c0 23.552-19.115 42.666-42.666 42.666zM432 0h-352v352h352v-352zM146.090 64h125.91v32h-43.882l28.032 44.565 47.851-76.565h64l-79.744 127.616 80.704 128.384h-64.96l-48-76.8-48 76.8h-64l80-128-80-128z" />
<glyph unicode="&#xe6ab;" glyph-name="uniE6AB" d="M421.334 480h-330.666c-23.552 0-42.666-19.115-42.666-42.666v-426.666c0-23.552 19.115-42.666 42.666-42.666h330.666c23.552 0 42.666 19.115 42.666 42.666v426.666c0 23.552-19.115 42.666-42.666 42.666zM432 0h-352v352h352v-352zM341.44 32l26.56 17.877-9.493 14.123h41.493v32h-62.998l-43.008 64h106.005v32h-127.51l-42.987 64h170.496v32h-192l-25.387 37.781-26.56-17.834 13.398-19.947h-57.451v-32h78.954l43.008-64h-121.963v-32h143.446l42.987-64h-186.432v-32h207.936z" />
<glyph unicode="&#xe6ac;" glyph-name="uniE6AC" d="M160 415.957h288v-31.957h-288v31.957zM160 95.914h288v-31.914h-288v31.914zM246.784 295.573h31.552v-86.869h-31.552v86.87zM96.299 480l0.874-128.534-97.174-0.128v-192l96.299 0.128v-191.466h415.702v512h-415.702zM127.232 236.886h-31.531v58.688h-29.909v-116.181h-31.51v145.6h63.061v-29.418h29.888v29.418h61.994v-145.6h-31.51v116.182h-30.486v-58.688zM480 129.45v-129.45h-351.702v159.53l351.702 0.469v-30.55zM309.803 295.573v-86.869h-31.488v-29.334l-63.061 0.022v145.6h63.061v-29.418h31.488zM338.88 295.573v29.418h31.531v-29.418h29.909v29.418h31.531v-29.418h-30.699v-86.869h30.699v-29.334h-31.531v29.334h-29.909v-29.334h-31.531v29.334h30.72v86.87h-30.72zM480 352l-352.534-0.49 0.832 96.49h351.702v-96z" />
<glyph unicode="&#xe6ad;" glyph-name="uniE6AD" d="M90.666 480c-23.552 0-42.666-19.115-42.666-42.666v-426.666c0-23.552 19.114-42.666 42.666-42.666h330.666c23.552 0 42.666 19.115 42.666 42.666v309.334l-160 160h-213.333zM432 0h-352v448h224v-128h128v-320z" />
<glyph unicode="&#xe6ae;" glyph-name="uniE6AE" d="M0 480v-512h512v512h-512zM480.128 0.789h-448.96v447.211h448.96v-447.211zM386.048 30.678l93.952 193.322-96 192h-256l-96-192 96-194.005z" />
<glyph unicode="&#xe6af;" glyph-name="uniE6AF" d="M421.675 480h-331.328c-17.43 0-31.573-14.421-31.573-32.235v-447.53c0-17.834 14.144-32.235 31.573-32.235h331.328c17.45 0 31.552 14.4 31.552 32.235v447.531c-0.022 17.813-14.101 32.234-31.552 32.234zM427.67-9.792h-345.877v465.301h345.856v-465.301zM254.678 382.038c-67.626 0-122.454-54.806-122.454-122.454s54.827-122.454 122.454-122.454 122.454 54.805 122.454 122.454-54.848 122.454-122.454 122.454zM324.33 357.674l-2.197-3.178-4.63-0.426 0.426 2.325-1.365 5.632-5.952-2.88-0.363 6.72c4.95-2.432 9.622-5.163 14.080-8.192zM302.55 367.765l1.707 0.064-0.214-1.856h-0.875l-0.086-1.13h1.046v-1.942l-1.579-0.298v5.162zM300.672 365.866v-2.602h-1.13l0.298 0.618-0.96 0.277v1.814l1.792-0.106zM289.622 352.896l3.094 0.277v1.11l2.283 0.213-0.256-4.885-1.834-2.346h-3.456l0.171 5.632zM232.448 342.506v-3.093l-2.816-1.259-6.784 2.432v1.92l3.072 2.219 1.195 0.875 2.262-0.277 3.072-2.816zM225.92 374.976v-0.576l-1.088 0.299c0.341 0.064 0.746 0.171 1.088 0.277zM222.101 373.909l0.149-0.469-1.6-4.63-2.411-1.322-3.072 2.197-2.176 1.173c3.008 1.152 5.994 2.155 9.109 3.050zM251.136 250.965l-2.794-6.123-2.774-0.448v-8l-4.181-8.405-6.486-2.389c0 0-1.834-4.65-1.834-6.122 0-1.365-7.936-10.262-7.936-10.262h-4.138l1.365-3.776-1.856-4.16h-3.243l-1.856-1.877h-2.282l0.47-2.837-1.834-5.12h-1.899l1.899-3.84-2.346-5.632 0.939-4.181 4.608-3.264h-8.81l-5.077 5.675-2.816 10.24v2.325h2.282l0.982 4.736-2.389 1.387 0.47 8.448 1.899 1.856v9.365l0.448 3.286 0.448 14.528-9.238 7.040-3.712 9.899-1.344 1.814-0.939 3.819h2.282l-1.344 3.264 0.896 4.672 2.731 1.856-0.853 5.206-8.853 4.714-0.917 7.958-5.099 2.304-4.202-0.981-6.016 2.837-7.915 6.293-0.47 0.341-4.16 8.853v-6.101l-2.774 1.43-4.224 5.525c9.344 21.846 24.746 39.637 43.648 51.99l4.63-4.096 1.856-4.715h2.774l0.47 3.776 2.774 4.182 1.109 8.534c1.472 0.725 3.008 1.408 4.48 2.048l4.65-0.214 1.941-7.040 5.952 4.267 2.794-3.798-0.917-3.285 0.534-0.576 5.952-6.464-0.448-3.243-8.384-3.755h-6.059l-1.856-2.837h2.411l3.221-3.734 8.32-2.837-5.611-1.365-3.691-2.858-1.814 2.368 0.427 1.856h-4.672l-3.2-3.798-0.939-3.243-4.63 0.982-0.427-7.019-1.92 0.918v-6.123h-5.099l-2.794-4.181-0.405-9.92-2.816 1.451-0.96 6.528h-7.381l-0.47-1.856-5.547 0.534-4.63-2.859-0.982-10.346 6.080-3.733 4.63 5.205 4.181-0.448-1.408-5.205 1.429-3.286 3.69 1.856 3.2-1.408-3.2-5.12 6.954-6.528 5.547 6.037 5.142-1.899 7.829-0.896 5.162-3.733-1.451-3.286 8.363-0.512 6.549-6.55-0.512-2.837 7.424-3.243 4.65-0.512 8.832-5.142-0.49-4.181zM214.549 291.2l-1.302-2.133h-2.838l-0.554 1.877 3.094 2.774 1.6-2.517zM194.688 293.738l-3.136 2.816-6.123 1.6 1.216 1.514 5.845 0.683 6.827-3.776 7.446-1.579v-3.798l-5.226-2.432-3.755 0.939 1.856 3.456-4.95 0.576zM256.875 375.616l-4.352-1.237-3.989-9.984-0.192-0.171c-1.131-0.171-2.346-0.32-3.413-0.469l-3.563 1.558c0 0-3.030 4.736-4.011 5.334-0.896 0.618 0.597 3.114 0.597 3.114l-1.088 3.478c6.23 0.96 12.501 1.493 18.838 1.493 1.28 0 2.474-0.042 3.69-0.128l-2.517-2.986zM274.816 375.296l3.307 1.344c2.752-0.534 5.418-1.13 8.214-1.834l0.256-1.024-4.032-2.496-3.413-0.618-4.608 2.773 0.277 1.856zM366.038 229.099l-2.134-4.714v-3.158l-3.712 0.661-4.032 6.549 1.259 1.258 1.834 3.114-1.259 2.538 1.579 3.392 5.205 1.578 1.877 4.075 1.579-0.661 0.534-4.672-2.731-9.963zM365.291 283.264h-2.325l-4.672 4.245-1.387 3.69-4.63 2.432 0.918 3.243-7.424 11.712 1.408-8.427 2.795-1.92 0.448-4.182 8.341-13.12 1.877-3.733 3.627 3.733h4.245v-4.672l-3.243-7.936-7.466-5.696-4.992-7.531 1.834-6.998v-8.448l-6.998-7.018-0.448-8.47-2.368-1.366-1.834-4.245-9.259-8.896-10.176-0.918 0.384 7.914-4.118 2.795-1.92 10.858-2.666 5.099v7.061l3.627 1.899-0.96 6.976-5.034 8.896v2.837l0.426 4.224-0.875 1.92h-2.795l-4.16 3.286-14.378-2.858-13.034 13.184-0.426 14.55 9.259 11.178 1.408 4.267 4.63 6.528 6.507 0.469 6.464 2.389 10.005-1.216 0.661-4.714 4.16-0.192 0.96-1.877 4.672-2.325 0.426 2.774h3.328l5.909-1.43 9.365-0.406 0.426 4.672-4.63 0.918 0.96 3.798-2.325-2.389-6.038 7.488-0.49-1.834v-5.184h4.202v-3.243l-3.712-0.448-4.672 6.549-3.776 8.384-7.424 3.37 3.755-2.858 3.67-4.202v-3.243l-3.67-4.288-4.010 2.858 3.37 1.579-0.341 1.642-4.63 6.123-0.448-7.019-3.755-0.49 1.002 7.040-4.672 0.448-5.995-5.611v-5.44l-13.034 0.278 0.981 12.224 6.464-0.49 3.243 0.896v2.389l1.877 2.304-3.264 0.49-0.918 3.307 3.264 1.856-6.507 0.469 3.243 7.061-2.283 5.59 2.24 1.877 2.325 1.856c0 0 0-1.28 0.298-2.709 0.086-0.299 0.171-0.683 0.214-1.046 0.469-1.877 3.243-6.997 3.243-6.997l-1.877-2.326 3.755-1.899 5.952 4.65v4.288l3.286 2.752 0.875-5.248 0.043-0.406 8.32 0.512 2.368 3.115c9.173-6.528 17.344-14.166 24.214-22.699 3.541-4.438 6.678-9.109 9.536-14.016 5.76-10.026 10.134-20.949 12.8-32.49l-2.923-1.429-4.63-2.346zM293.546 110.656l-24.192-0.064c0.726-1.856 1.301-3.861 1.301-6.058 0-4.842-1.92-9.088-5.077-12.288-3.158-3.136-7.445-5.034-12.288-5.034h-62.998c-4.8 0-9.088 1.92-12.267 5.077-3.157 3.2-5.077 7.488-5.077 12.267s1.92 9.13 5.099 12.224c3.179 3.221 7.424 5.163 12.288 5.163l9.578-0.022c4.416 13.974 13.078 20.373 19.499 23.424h-29.12c-11.221 0.064-21.504-4.544-28.886-11.904-7.339-7.36-11.946-17.664-11.925-28.885-0.022-11.243 4.608-21.546 11.925-28.885 0.022 0 0.022 0 0.064 0 7.339-7.402 17.621-11.947 28.8-11.968h62.998c11.286-0.043 21.483 4.544 28.885 11.968 7.382 7.339 11.925 17.579 11.925 28.822 0 2.112-0.214 4.16-0.534 6.166zM354.411 104.469c0 11.286-4.672 21.568-12.010 28.95h-0.043c-7.339 7.339-17.579 11.882-28.757 11.904l-63.040-0.022c-11.264 0.086-21.504-4.522-28.864-11.882-7.403-7.382-11.989-17.664-11.968-28.95 0-2.048 0.214-4.010 0.512-6.080l24.214 0.022c-0.746 1.877-1.258 3.925-1.28 6.058 0.022 4.864 1.92 9.195 5.099 12.31 3.179 3.178 7.466 5.142 12.31 5.142l62.912-0.022c4.842-0.064 9.13-1.942 12.245-5.12 3.2-3.2 5.12-7.466 5.12-12.31 0-4.757-1.92-9.11-5.12-12.245-3.115-3.158-7.424-5.034-12.202-5.034h-9.622c-4.416-14.016-13.077-20.459-19.456-23.488l29.077-0.043c11.243 0 21.462 4.587 28.843 12.010 7.382 7.339 12.032 17.579 12.032 28.8z" />
<glyph unicode="&#xe6b0;" glyph-name="uniE6B0" d="M0 480v-512h512v512h-512zM480.106 0.789h-448.938v447.211l224.49-447.211 224.448 447.211v-447.211z" />
<glyph unicode="&#xe6b1;" glyph-name="uniE6B1" d="M256 330.667l128-170.667h42.666v21.334h-21.334l-149.333 192-106.667-192h-64v-21.334h85.334zM277.334 141.781l85.334-88.448h64v21.334h-42.666l-107.563 106.666-102.656-104.875-88.448-1.792v-21.334h106.666zM0 480v-512h512v512h-512zM469.334 10.666h-426.666v426.666h426.666v-426.666z" />
<glyph unicode="&#xe6b2;" glyph-name="uniE6B2" d="M0 480v-512h512v512h-512zM480 0h-448v128h448v-128zM480 192h-448v64h448v-64zM480 320h-448v128h448v-128z" />
<glyph unicode="&#xe6b3;" glyph-name="uniE6B3" d="M421.334 480h-330.666c-23.552 0-42.666-19.094-42.666-42.666v-426.666c0-23.552 19.115-42.666 42.666-42.666h330.666c23.552 0 42.666 19.115 42.666 42.666v426.666c0 23.574-19.115 42.666-42.666 42.666zM432 0h-64v384h-96v-384h-32v320h-96v-320h-64v448h352v-448z" />
<glyph unicode="&#xe6b4;" glyph-name="uniE6B4" d="M209.728 423.104c-1.088-7.786-4.438-15.061-9.984-20.864l-7.21-7.574h284.693v-398.229h-398.208v281.877c-5.483-2.923-11.541-4.672-17.814-4.672-3.648 0-7.19 0.683-10.624 1.685v-307.328h455.104v455.104h-295.957zM74.944 298.496l25.792 27.115 26.816-26.091c7.488-7.317 19.498-7.146 26.794 0.363l33.066 33.962c7.317 7.488 7.147 19.499-0.341 26.794l-27.542 26.816 26.496 27.861c7.21 7.574 6.912 19.584-0.683 26.795l-34.346 32.661c-7.595 7.232-19.606 6.912-26.838-0.661l-25.77-27.115-26.816 26.112c-7.51 7.296-19.52 7.125-26.816-0.363l-33.066-33.962c-7.296-7.531-7.146-19.52 0.363-26.816l27.542-26.816-26.496-27.861c-7.21-7.574-6.912-19.584 0.682-26.795l34.346-32.661c7.594-7.232 19.584-6.933 26.816 0.661z" />
</font>
</defs>
</svg>
